<?xml version="1.0" standalone="no"?>
<!DOCTYPE svg PUBLIC "-//W3C//DTD SVG 1.1//EN" "http://www.w3.org/Graphics/SVG/1.1/DTD/svg11.dtd" >
<svg>
<metadata>
Created by FontForge 20090622 at Mon Jun 27 04:10:24 2016
 By deploy user
2013 Iconian Fonts - www.iconian.com
</metadata>
<defs>
<font id="Airstrike" horiz-adv-x="755" >
  <font-face 
    font-family="Airstrike"
    font-weight="400"
    font-stretch="normal"
    units-per-em="1000"
    panose-1="0 0 0 0 0 0 0 0 0 0"
    ascent="800"
    descent="-200"
    x-height="530"
    cap-height="530"
    bbox="-155 -142 1324 723"
    underline-thickness="50"
    underline-position="-75"
    unicode-range="U+0020-U+20AC"
  />
<missing-glyph horiz-adv-x="500" 
 />
    <glyph glyph-name=".notdef" horiz-adv-x="500" 
 />
    <glyph glyph-name=".null" horiz-adv-x="0" 
 />
    <glyph glyph-name="nonmarkingreturn" horiz-adv-x="500" 
 />
    <glyph glyph-name="space" unicode=" " horiz-adv-x="279" 
 />
    <glyph glyph-name="space" unicode="&#xa0;" horiz-adv-x="279" 
 />
    <glyph glyph-name="FL0021h" unicode="!" horiz-adv-x="248" 
d="M90 171h192l131 359h-192zM71 70q-4 -8 -4 -23q0 -21 14.5 -34t40.5 -13q16 0 32 5.5t29 14.5q21 15 33 36t12 38q0 20 -14.5 33.5t-40.5 13.5q-32 0 -61 -21t-41 -50z" />
    <glyph glyph-name="FL0022h" unicode="&#x22;" horiz-adv-x="326" 
d="M330 430l13 37q10 26 34.5 45t50.5 19q21 0 32.5 -11.5t11.5 -29.5q0 -15 -4 -23l-13 -37q-5 -13 -17.5 -28.5t-26.5 -29t-28 -23t-21 -9.5h-8q-16 0 -21.5 18t-5.5 38t3 34zM185 430l13 37q10 26 34.5 45t50.5 19q21 0 32.5 -11.5t11.5 -29.5q0 -15 -4 -23l-13 -37
q-5 -13 -17.5 -28.5t-26.5 -29t-28 -23t-21 -9.5h-8q-16 0 -21.5 18t-5.5 38t3 34z" />
    <glyph glyph-name="FL0023h" unicode="#" horiz-adv-x="747" 
d="M144 0l37 102h-126l143 135h32l19 52h-126l143 135h32l39 106h192l-39 -106h77l39 106h192l-39 -106h124l-143 -135h-30l-19 -52h124l-143 -135h-30l-37 -102h-192l37 102h-77l-37 -102h-192zM518 289h-77l-19 -52h77z" />
    <glyph glyph-name="FL0024h" unicode="$" horiz-adv-x="660" 
d="M220 -141l51 141h-232q5 10 20.5 32t33 44.5t32.5 40t18 17.5h177l23 65h-120q-22 0 -35 8t-20 21t-9 30.5t-2 36.5v58q0 24 14 54.5t36.5 58t50.5 46t56 18.5h150l50 139h126l-50 -139h234q-23 -34 -52.5 -68t-65.5 -68h-166l-23 -65h52q32 0 55 -15.5t37.5 -39
t21.5 -50.5t7 -50v-6q0 -26 -12 -55.5t-31.5 -54.5t-45 -41.5t-52.5 -16.5h-152l-51 -141h-126zM414 394h-38q-11 0 -19 -15t-8 -24v-5q0 -1 4 -4.5t6 -5.5q4 -4 11.5 -7.5t8.5 -3.5h12zM503 174q0 8 -3 16.5t-11 8.5h-20l-23 -65h37q15 0 17.5 9t2.5 19v12z" />
    <glyph glyph-name="FL0025h" unicode="%" horiz-adv-x="788" 
d="M85 0h171l643 530h-173zM511 408q6 33 -0.5 56t-22.5 38t-41 21.5t-55 6.5h-66q-23 0 -46 -10.5t-43.5 -27.5t-36 -38.5t-23.5 -43.5q-5 -12 -6 -24q-5 -36 2.5 -59.5t25 -37t43 -19t55.5 -5.5h50q26 0 51 10.5t46 27.5t37 38.5t24 43.5l4 11q2 8 2 12zM281 397l6 16
q8 14 22.5 26t27.5 12h30q18 0 25 -9.5t7 -23.5q0 -12 -1 -15l-3 -7q-1 -3 -2 -5l-2 -4q-4 -7 -11 -14t-14.5 -12t-14.5 -8.5t-11 -3.5h-26q-14 0 -25 16.5t-8 31.5zM815 143q11 66 -24 94t-96 28h-66q-23 0 -46 -10.5t-43 -27.5t-35.5 -38.5t-23.5 -43.5q-5 -12 -6 -24
q-5 -36 2.5 -59.5t25 -37t43 -19t55.5 -5.5h50q26 0 51 10.5t46 27.5t37 38.5t24 43.5l4 11q1 5 1.5 8t0.5 4zM585 132l6 16q8 14 22.5 26t27.5 12h30q19 0 25 -9.5t6 -23.5q0 -12 -1 -15l-2 -7q-1 -4 -5 -9q-8 -14 -24.5 -26t-25.5 -12h-26q-14 0 -25 16.5t-8 31.5z" />
    <glyph glyph-name="FL0026h" unicode="&#x26;" horiz-adv-x="800" 
d="M760 197h-32q-2 -13 -6 -26.5t-9 -24.5l-5 -15q-15 -35 -29.5 -60t-37.5 -40.5t-59.5 -23t-95.5 -7.5h-284q-41 0 -68 3.5t-43.5 11t-23 19t-6.5 27.5q0 14 4 31.5t11 38.5l5 15q5 13 13.5 30.5t18.5 30.5q16 20 33.5 31t27.5 19q-11 6 -15.5 20.5t-4.5 32.5
q0 23 5.5 45.5t13.5 37.5l6 16q7 20 19 41.5t35 39t62 29t100 11.5h366q-24 -35 -51.5 -69t-60.5 -67h-242q-5 0 -18 -5.5t-18 -16.5l-56 -156l134 116h454zM473 136l5 2.5t11 6l12 7t9 6.5l1.5 2t2.5 3l2 5q2 3 6 15.5t4 19.5h-217l-15 -45q3 -5 10 -13.5t9 -8.5h160z" />
    <glyph glyph-name="FL0027h" unicode="'" horiz-adv-x="181" 
d="M185 430l13 37q10 26 34.5 45t50.5 19q21 0 32.5 -11.5t11.5 -29.5q0 -15 -4 -23l-13 -37q-5 -13 -17.5 -28.5t-26.5 -29t-28 -23t-21 -9.5h-8q-16 0 -21.5 18t-5.5 38t3 34z" />
    <glyph glyph-name="FL0028h" unicode="(" horiz-adv-x="410" 
d="M119 206v-2q0 -47 13 -82.5t34.5 -61.5t48 -43t53.5 -28t51.5 -17t41.5 -9l15 31.5t14.5 32.5t11 29.5t4.5 22.5v6q-7 9 -24 24t-34 33t-30.5 38t-13.5 40v1q0 6 5.5 22.5l10.5 30.5l8 24q6 17 17 37.5t25.5 38.5t30.5 30t33 12h17q36 30 65.5 63.5t58.5 71.5h-170
q-35 0 -70 -16.5t-66.5 -44t-59 -63t-47.5 -74t-31.5 -76.5t-11.5 -70v-1z" />
    <glyph glyph-name="FL0029h" unicode=")" horiz-adv-x="409" 
d="M477 308v3q0 47 -13.5 82.5t-34.5 61t-47.5 43t-53.5 28t-51 16.5t-41 9q-8 -14 -16 -31t-15 -34t-11 -31.5t-4 -22.5v-6q15 -9 32.5 -23.5t33 -32.5t26 -37.5t10.5 -38.5q-1 -6 -6.5 -25t-11.5 -36l-6 -17q-6 -17 -17.5 -37.5t-26 -38.5t-30.5 -30t-32 -12h-17
q-36 -30 -65 -63.5t-58 -71.5h170q35 0 69.5 16.5t66.5 44t59 63t47 74t31.5 76.5t11.5 70v1z" />
    <glyph glyph-name="FL0419h" unicode="*" horiz-adv-x="246" 
d="M289 398l-7 48l-42 -48l-47 55l48 33l-42 11l53 77l29 -25l12 46h87l-24 -46l52 23v-77l-56 -9l24 -35z" />
    <glyph glyph-name="FL002Bh" unicode="+" horiz-adv-x="461" 
d="M202 98l35 97h-148l143 135h54l38 103h135l-38 -103h142l-143 -135h-48l-35 -97h-135z" />
    <glyph glyph-name="FL002Ch" unicode="," horiz-adv-x="208" 
d="M38 28l15 42q12 29 41 50t61 21q26 0 40.5 -13.5t14.5 -33.5q0 -7 -5 -24l-15 -42q-5 -14 -19 -31.5t-31 -32.5t-33.5 -25.5t-25.5 -10.5h-9q-11 0 -18 6.5t-10.5 17t-5 23t-1.5 24.5v15q0 11 1 14z" />
    <glyph glyph-name="FL002Dh" unicode="-" horiz-adv-x="361" 
d="M320 195l143 135h-231l-143 -135h231z" />
    <glyph glyph-name="FL002Eh" unicode="." horiz-adv-x="208" 
d="M53 70q-4 -8 -4 -23q0 -21 14.5 -34t40.5 -13q16 0 32 5.5t29 14.5q21 15 33 36t12 38q0 20 -14.5 33.5t-40.5 13.5q-32 0 -61 -21t-41 -50z" />
    <glyph glyph-name="FL002Fh" unicode="/" horiz-adv-x="657" 
d="M231 0h-213l600 530h214z" />
    <glyph glyph-name="FL0030h" unicode="0" horiz-adv-x="721" 
d="M797 287q2 15 3.5 28.5t1.5 26.5q0 50 -18 86t-50.5 58.5t-77.5 33t-99 10.5h-132q-53 0 -105 -26.5t-95 -68.5t-72 -93t-36 -99q-2 -14 -3 -27t-1 -25q0 -56 19.5 -93t53.5 -58.5t81 -30.5t102 -9h100q60 0 116 26.5t100.5 68.5t74.5 93t37 99zM305 257q1 8 5 18.5
l9 22.5q9 17 24.5 34.5t33.5 31.5t36.5 22.5t34.5 8.5h81q25 0 40.5 -7.5t24.5 -20t12 -28.5t3 -32q0 -9 -0.5 -17.5t-1.5 -16.5q0 1 -2 -9l-4 -10q-2 -8 -11 -22q-9 -17 -26.5 -34.5t-37 -31.5t-38 -22.5t-30.5 -8.5h-66q-18 0 -34 10t-28 26t-19 35.5t-7 37.5v6q0 6 1 7z
" />
    <glyph glyph-name="FL0031h" unicode="1" horiz-adv-x="325" 
d="M297 0l193 530h-205q-14 -9 -33.5 -29.5t-38 -42.5t-32 -40t-14.5 -22v-1h82l-144 -395h192z" />
    <glyph glyph-name="FL0032h" unicode="2" horiz-adv-x="661" 
d="M265 141q0 -7 11 -7h405l-12 -15.5l-29.5 -36.5l-37 -44t-35.5 -38h-455q-29 0 -42.5 18.5t-13.5 45.5q0 25 10 53t28 54q16 22 45 49t62 50.5t67 39t60 15.5h190q1 0 13 5.5t19 9.5q4 2 10 5.5t6 4.5l4 5q10 10 10 27q0 12 -9 12h-398q10 16 24.5 34.5t31 36.5
l32.5 34.5l30 30.5h442q31 0 45.5 -22t14.5 -54q0 -26 -8.5 -52.5t-24.5 -49.5q-18 -25 -47.5 -52.5t-64 -51t-70 -38.5t-64.5 -15h-200q-8 0 -16 -6.5t-14 -14.5z" />
    <glyph glyph-name="FL0033h" unicode="3" horiz-adv-x="671" 
d="M130 136q-28 -29 -52 -63.5l-50 -72.5h441q59 0 95.5 7.5t59.5 23t37.5 40.5t29.5 60l4 11q5 13 10.5 31.5t5.5 32.5q-1 20 -11 31t-14 19q14 6 28 19t25 30.5t17.5 37t6.5 38.5v2q0 20 -6 45.5t-18.5 48t-31.5 38t-45 15.5h-385q-31 -32 -55 -66.5t-46 -69.5h374
q2 0 9.5 -8.5t10.5 -13.5l0.5 -2t1.5 -3l-2 -5q-1 -3 -4.5 -8.5l-7.5 -11.5t-7.5 -10.5t-4.5 -4.5h-160l-154 -135h270q0 -7 -0.5 -14t-2.5 -10l-2 -5q-1 -1 -2.5 -3l-1.5 -2q-3 -3 -9 -6.5l-12 -7t-11 -6l-5 -2.5h-326z" />
    <glyph glyph-name="FL0034h" unicode="4" horiz-adv-x="654" 
d="M626 0h-192l107 294l-103 -104h-341l124 340h190l-75 -205h216l75 205h192z" />
    <glyph glyph-name="FL0035h" unicode="5" horiz-adv-x="654" 
d="M476 134h-340q-3 0 -18 -17.5t-32.5 -40t-33 -44.5t-20.5 -32h510q27 0 52.5 16.5t45 41.5t31.5 54.5t12 55.5v4q0 22 -9 49t-25.5 50t-38.5 38.5t-48 15.5h-190q-1 0 -8.5 5.5t-11.5 9.5q-2 2 -6 5.5t-4 4.5v5l14 39h343q36 34 65.5 68t52.5 68h-601l-65 -177
q-1 -5 -1.5 -9.5t-0.5 -9.5q0 -24 13 -49t32.5 -45t43 -32.5t44.5 -12.5h200q8 0 11 -6.5t3 -14.5q0 -20 -20 -40z" />
    <glyph glyph-name="FL0036h" unicode="6" horiz-adv-x="636" 
d="M684 195q6 25 6 46q0 35 -18.5 57.5t-63.5 31.5h-272q15 26 36 45.5t46 19.5h260q35 30 64.5 63.5t58.5 71.5h-413q-53 0 -100 -26.5t-83 -67.5t-57 -92t-21 -99v-2q0 -72 28.5 -119t75.5 -74.5t106 -38.5t121 -11q37 0 72 17t65 45t53 63t36 70zM459 203q19 -3 23 -11.5
t7 -17.5l-25 -38h-58q-21 0 -35.5 17.5t-28.5 40.5l-6 9h123z" />
    <glyph glyph-name="FL0037h" unicode="7" horiz-adv-x="611" 
d="M56 0h202l528 530h-501q-14 -9 -33.5 -29.5t-38 -42.5t-32 -40t-14.5 -22v-1h269z" />
    <glyph glyph-name="FL0038h" unicode="8" horiz-adv-x="702" 
d="M173 393q-8 -15 -13.5 -37.5t-5.5 -45.5q0 -18 4.5 -32.5t15.5 -20.5q-10 -8 -27.5 -19t-33.5 -31q-10 -13 -18.5 -30.5t-13.5 -30.5l-5 -15q-7 -21 -11 -38.5t-4 -31.5q0 -16 6.5 -27.5t23 -19t43.5 -11t68 -3.5h298q59 0 95.5 7.5t59.5 23t37.5 40.5t29.5 60l7 20
q5 12 9 26.5t4 25.5v3q-1 20 -11 31t-14 19q21 9 39.5 32t28.5 51q9 22 9 39v14q0 21 -6 45t-19 44.5t-32 34.5t-44 14h-298q-61 0 -100 -11.5t-62 -29t-35 -39t-19 -41.5zM371 372q5 11 18 16.5t18 5.5h174q3 -1 10 -9t10 -13v-10q-2 -6 -10 -18t-11 -12h-131l-134 -116z
M313 136q-2 0 -9 8.5t-10 13.5l1 3q0 1 0.5 1.5t0.5 1.5l-1 2l14 37h231q0 -7 -4 -19.5t-6 -15.5l-2 -5q-1 -1 -2.5 -3l-1.5 -2q-3 -3 -9 -6.5l-12 -7t-11 -6l-5 -2.5h-174z" />
    <glyph glyph-name="FL0039h" unicode="9" horiz-adv-x="636" 
d="M145 335q-6 -26 -6 -46q0 -35 18.5 -57.5t63.5 -31.5h272q-15 -26 -36 -45.5t-46 -19.5h-260q-35 -30 -64.5 -63.5t-58.5 -71.5h413q51 0 98 26.5t83 67.5t57.5 91.5t21.5 98.5v3q0 71 -13 118t-48 74.5t-98 39t-163 11.5h-8q-37 0 -72 -17.5t-65 -45t-53 -62.5t-36 -70z
M370 327q-20 3 -23.5 11.5t-6.5 17.5l24 38h58q22 0 37 -18.5t29 -41.5l5 -7h-123z" />
    <glyph glyph-name="FL003Ah" unicode=":" horiz-adv-x="209" 
d="M54 70q-4 -8 -4 -23q0 -21 14.5 -34t40.5 -13q16 0 32 5.5t29 14.5q21 15 33 36t12 38q0 20 -14.5 33.5t-40.5 13.5q-32 0 -61 -21t-41 -50zM148 331q-4 -8 -4 -23q0 -21 14.5 -34t40.5 -13q16 0 32 5.5t29 14.5q21 15 33 36t12 38q0 20 -14.5 33.5t-40.5 13.5
q-32 0 -61 -21t-41 -50z" />
    <glyph glyph-name="FL003Bh" unicode=";" horiz-adv-x="209" 
d="M148 331q12 29 41 50t61 21q26 0 40.5 -13.5t14.5 -33.5q0 -9 -5 -24t-16 -28q-15 -18 -38 -30t-47 -12q-26 0 -40.5 13t-14.5 34q0 15 4 23zM38 28l15 42q12 29 41 50t61 21q26 0 40.5 -13.5t14.5 -33.5q0 -7 -5 -24l-15 -42q-5 -14 -19 -31.5t-31 -32.5t-33.5 -25.5
t-25.5 -10.5h-9q-11 0 -18 6.5t-10.5 17t-5 23t-1.5 24.5v15q0 11 1 14z" />
    <glyph glyph-name="FL003Ch" unicode="&#x3c;" horiz-adv-x="454" 
d="M223 0h213l-107 266l299 264h-214l-299 -264z" />
    <glyph glyph-name="FL003Dh" unicode="=" horiz-adv-x="432" 
d="M426 289l143 135h-302l-143 -135h302zM358 102l143 135h-302l-143 -135h302z" />
    <glyph glyph-name="FL003Eh" unicode="&#x3e;" horiz-adv-x="454" 
d="M231 0h-213l301 266l-107 264h214l107 -264z" />
    <glyph glyph-name="FL003Fh" unicode="?" horiz-adv-x="654" 
d="M139 170h155v1q2 3 17 13.5t47 10.5h149q29 0 64.5 15t70 38.5t64 51t47.5 52.5q16 22 24.5 48.5t8.5 52.5q0 32 -14 54.5t-46 22.5h-442l-30 -30.5l-32.5 -34.5t-31 -36.5t-24.5 -34.5h398q9 0 9 -12q0 -17 -10 -27l-4 -5q0 -1 -6 -4.5t-10 -5.5q-7 -4 -19 -9.5
t-13 -5.5h-139q-26 0 -60 -15.5t-67 -39t-61.5 -50.5t-44.5 -50zM92 70q-4 -8 -4 -23q0 -21 14.5 -34t40.5 -13q16 0 32 5.5t29 14.5q21 15 33 36t12 38q0 20 -14.5 33.5t-40.5 13.5q-32 0 -61 -21t-41 -50z" />
    <glyph glyph-name="FL0040h" unicode="@" horiz-adv-x="751" 
d="M371 275q6 17 20.5 33.5t33 29t39.5 20.5t40 8q30 0 46 -18.5t16 -44.5q0 -9 -5 -29q-2 -3 -2.5 -5.5t-2.5 -4.5h13q27 0 46.5 6.5t27.5 27.5q7 14 7 35q0 32 -23.5 54t-65.5 29h-128q-16 0 -32.5 -12t-30.5 -30t-25.5 -38.5t-17.5 -37.5q-8 -27 -16 -49.5t-8 -27.5v-1
q0 -20 13.5 -40t30.5 -38t34 -33t24 -24q10 -4 34.5 -6.5t40.5 -2.5h6q0 -4 -9.5 -30l-29.5 -83h-87q-17 3 -41.5 9t-51.5 17t-53.5 28t-48 43t-34.5 61.5t-13 82.5v2q0 43 19 93q16 45 44.5 90t64.5 81.5t76.5 59t81.5 22.5h181q17 -3 42 -5t53 -7.5t56.5 -16t51 -30.5
t36.5 -51.5t14 -78.5v-3q0 -40 -14 -82q-24 -66 -77.5 -88t-135.5 -22h-170q-42 5 -56.5 28t-14.5 56v11q0 9 1 12zM449 270q-1 -1 -1 -8q0 -15 15 -15q10 0 19 6.5t12 16.5q2 10 2 9q0 14 -16 14q-10 0 -18.5 -6.5t-12.5 -16.5z" />
    <glyph glyph-name="FL0041h" unicode="A" 
d="M737 0l-66 429l-7.5 29.5t-10.5 33.5t-14.5 27t-18.5 11h-168q-7 0 -17.5 -7.5t-21 -17t-19.5 -19.5t-12 -16l-360 -460v-3q0 1 -2 -7h423q7 3 22 19t30.5 35t28 36t14.5 23l21 -113h178zM335 144l168 225l35 -235h-203v10z" />
    <glyph glyph-name="FL0042h" unicode="B" horiz-adv-x="689" 
d="M221 530l-193 -530h459q53 0 88.5 7.5t60.5 23t41.5 40.5t31.5 60l4 11l10 27t5 28q-1 20 -10 36.5t-20 25.5q12 6 26.5 18.5t27 29t21 35.5t8.5 39v2q0 28 -4.5 55t-16 47t-31 32.5t-49.5 12.5h-459zM308 242l55 152h205q2 0 9.5 -8.5t10.5 -13.5l0.5 -2t1.5 -3l-2 -5
q-1 -3 -4.5 -8.5l-7.5 -11.5t-7.5 -10.5t-4.5 -4.5h-160zM269 136l26 67h230q0 -7 -0.5 -14t-2.5 -10l-2 -5q-1 -1 -5 -8.5l-4 -7.5q-3 -3 -9 -6.5l-12 -7t-11 -6l-5 -2.5h-205z" />
    <glyph glyph-name="FL0043h" unicode="C" horiz-adv-x="631" 
d="M127 243q0 -72 28.5 -119t75.5 -74.5t106 -38.5t121 -11h80q38 30 67 65.5t52 69.5h-239q-17 0 -35.5 12t-34 30t-25.5 39.5t-10 40.5q0 15 8 41q6 17 17 34.5t24.5 31.5t28 22.5t27.5 8.5h260q35 30 64.5 63.5t58.5 71.5h-413q-53 0 -100 -26.5t-83 -67.5t-57 -92
t-21 -99v-2z" />
    <glyph glyph-name="FL0044h" unicode="D" horiz-adv-x="658" 
d="M709 241q-41 -65 -84.5 -110.5t-94.5 -74.5t-113 -42.5t-140 -13.5h-249l193 530h435q60 0 87 -33t27 -84q0 -39 -15 -84.5t-46 -87.5zM366 395l-95 -260h26q24 0 56 10.5t64 27.5t59 38.5t41 43.5q5 8 13 18t13 23q6 16 12.5 31t6.5 28q0 17 -7.5 28.5t-26.5 11.5h-162z
" />
    <glyph glyph-name="FL0045h" unicode="E" horiz-adv-x="625" 
d="M221 530l-193 -530h503q1 0 12.5 10t26.5 24.5l30.5 30.5t24.5 28q1 1 5 7t8 13l8 13.5t5 8.5h-383l22 60h199l143 135h-231l-95 -92l57 157h308q8 0 25.5 16t36 38t35 44.5t23.5 36.5h-570z" />
    <glyph glyph-name="FL0046h" unicode="F" horiz-adv-x="621" 
d="M221 530l-193 -530h191l71 195h199l143 135h-231l-95 -92l57 157h308q8 0 25.5 16t36 38t35 44.5t23.5 36.5h-570z" />
    <glyph glyph-name="FL0047h" unicode="G" horiz-adv-x="640" 
d="M732 330l-125 -330h-149q-62 0 -121 11t-106 38.5t-75.5 74.5t-28.5 119q0 48 21 99t57 93t83 68.5t100 26.5h413q-29 -38 -58.5 -71.5t-64.5 -63.5h-260q-16 0 -31 -8.5t-27.5 -22.5t-22.5 -31.5t-16 -34.5q-8 -26 -8 -41q0 -19 9.5 -40.5t25 -39.5t34 -30t36.5 -12h59
l23 65h-113v1q1 3 12.5 19.5t27.5 37l33.5 41t31.5 31.5h240z" />
    <glyph glyph-name="FL0048h" unicode="H" horiz-adv-x="654" 
d="M28 0h192l69 190h216l-69 -190h190l193 530h-190l-75 -205h-152l-102 -105l113 310h-192z" />
    <glyph glyph-name="FL0049h" unicode="I" horiz-adv-x="616" 
d="M23 0h499q8 0 25.5 16t36 38t35 44.5t23.5 36.5h-189l95 260h118q8 0 25.5 16t36 38t35 44.5t23.5 36.5h-501q-14 -9 -33.5 -29.5t-38 -42.5t-32 -40t-14.5 -22v-1h189l-95 -260h-120q-14 -9 -33.5 -29.5t-38 -42.5t-32 -40t-14.5 -22v-1z" />
    <glyph glyph-name="FL004Ah" unicode="J" horiz-adv-x="573" 
d="M330 0h29q64 0 107.5 17.5t74.5 51t54 83t46 113.5l97 265h-190l-108 -297q-7 -14 -18.5 -31t-26 -32t-32.5 -25t-37 -10h-202q-32 -32 -56 -66t-45 -69h307z" />
    <glyph glyph-name="FL004Bh" unicode="K" horiz-adv-x="698" 
d="M28 0h192l87 238l196 -238h214l-192 265l346 265h-214l-331 -238l87 238h-192z" />
    <glyph glyph-name="FL004Ch" unicode="L" horiz-adv-x="560" 
d="M28 0l193 530h191l-144 -395h317q1 0 -11.5 -17t-31.5 -39.5t-40 -45t-35 -33.5h-439z" />
    <glyph glyph-name="FL004Dh" unicode="M" horiz-adv-x="836" 
d="M808 0l193 530h-242l-245 -266l-51 266h-242l-193 -530h192l108 298l55 -298h69l272 298l-108 -298h192z" />
    <glyph glyph-name="FL004Eh" unicode="N" horiz-adv-x="654" 
d="M28 0h192l108 298l56 -298h242l193 530h-190l-109 -298l-57 298h-242z" />
    <glyph glyph-name="FL004Fh" unicode="O" horiz-adv-x="721" 
d="M797 287q6 34 6 64q0 96 -62.5 137.5t-183.5 41.5h-132q-53 0 -104.5 -24t-94.5 -63.5t-72 -91.5t-37 -108q-2 -14 -3 -27t-1 -25q0 -56 19.5 -93t53.5 -58.5t81 -30.5t102 -9h100q59 0 114.5 23t100 62t74.5 91t39 111zM305 257q1 8 5 18.5l9 22.5q9 17 24.5 34.5
t33.5 31.5t36.5 22.5t34.5 8.5h81q25 0 40.5 -7.5t24.5 -20t12 -28.5t3 -32q0 -9 -0.5 -17.5t-1.5 -16.5q0 1 -2 -9l-4 -10q-2 -8 -11 -22q-9 -17 -27 -34.5t-38 -31.5t-38.5 -22.5t-28.5 -8.5h-66q-18 0 -34 10t-28 26t-19 35.5t-7 37.5v6q0 6 1 7z" />
    <glyph glyph-name="FL0050h" unicode="P" horiz-adv-x="675" 
d="M28 0h192l70 192h281q34 0 71 14t68 39.5t51 60.5t20 77q0 20 -4.5 45.5t-16 48t-31 38t-49.5 15.5h-459zM363 394h205q2 0 9.5 -8.5t10.5 -13.5l0.5 -2t1.5 -3l-2 -5q-1 -3 -4.5 -8.5l-7.5 -11.5t-7.5 -10.5t-4.5 -4.5h-160l-96 -85z" />
    <glyph glyph-name="FL0051h" unicode="Q" horiz-adv-x="714" 
d="M793 287q2 14 3.5 27t1.5 25q0 47 -17.5 83t-49 60t-76 36t-98.5 12h-132q-53 0 -104.5 -23.5t-94.5 -63t-72 -91.5t-37 -109q-3 -24 -3 -45q0 -59 23 -97t61.5 -60.5t89.5 -31.5t107 -9h90l17 -28h200l-49 95q55 45 93 104t47 116zM351 254l54 -119h-13q-18 0 -34 10
t-28 26t-19 35.5t-7 37.5v6q0 6 1 7q1 8 5 18.5l9 22.5q9 17 24.5 34.5t33.5 31.5t36.5 22.5t34.5 8.5h69q27 0 44.5 -9t28 -23.5t14.5 -32t4 -35.5v-12q0 -8 -1 -10q0 1 -2 -9l-4 -10q-2 -8 -11 -22q-2 -5 -4.5 -9t-4.5 -8l-20 39h-210z" />
    <glyph glyph-name="FL0052h" unicode="R" horiz-adv-x="693" 
d="M28 0h192l66 182l11 8l206 -190h214l-196 201q40 3 85.5 11.5t83 28t62.5 52.5t25 84q0 23 -4.5 50t-16.5 50t-33.5 38t-55.5 15h-446zM583 366q0 -10 -6.5 -23.5t-21.5 -13.5h-160l-88 -89l57 156h201q12 0 15 -5.5t3 -13.5v-11z" />
    <glyph glyph-name="FL0053h" unicode="S" horiz-adv-x="660" 
d="M503 168v6q0 8 -3 16.5t-11 8.5h-200q-30 0 -54 14.5t-41.5 37t-26.5 49.5t-9 53q0 24 14 54.5t36 58t50 46t56 18.5h510q-23 -34 -52.5 -68t-65.5 -68h-330q-11 0 -19 -15t-8 -24v-5q0 -1 4 -4.5t6 -5.5q4 -4 11.5 -7.5t8.5 -3.5h190q32 0 55 -15.5t37.5 -39t21.5 -50.5
t7 -50v-6q0 -26 -12 -55.5t-31.5 -54.5t-45 -41.5t-52.5 -16.5h-510q5 10 20.5 32t33 44.5t32.5 40t18 17.5h340q15 0 17.5 9t2.5 19v6z" />
    <glyph glyph-name="FL0054h" unicode="T" horiz-adv-x="616" 
d="M212 0h192l144 395h118q8 0 25.5 16t36 38t35 44.5t23.5 36.5h-501q-14 -9 -33.5 -29.5t-38 -42.5t-32 -40t-14.5 -22v-1h189z" />
    <glyph glyph-name="FL0055h" unicode="U" horiz-adv-x="682" 
d="M142 308l79 222h189l-54 -158.5l-28 -84.5t-11 -35.5t-2 -10.5q-5 -20 -5 -32q0 -35 17 -54.5t45 -19.5h49q24 0 44.5 10t36.5 25t28 32t19 31l108 297h190l-90 -247q-25 -69 -51 -121.5t-59 -88.5t-76 -54.5t-103 -18.5h-117q-70 0 -116.5 8t-74.5 25.5t-40 45.5t-12 68
q0 11 1.5 23t3.5 26q5 26 12.5 52z" />
    <glyph glyph-name="FL0056h" unicode="V" horiz-adv-x="741" 
d="M433 173l-48 357h-174l62 -429q3 -12 7 -29.5t10 -33.5t14 -27t19 -11h165q7 0 18 7.5t21.5 18t19.5 20.5l14 16l355 468h-206z" />
    <glyph glyph-name="FL0077h" unicode="W" horiz-adv-x="872" 
d="M717 286l-17 244h-154l-170 -262v262h-165v-439q0 -13 1 -29t3.5 -29.5t7 -23t11.5 -9.5h119q6 0 14 7.5t16 18t15 21t12 16.5l118 169q7 -61 11.5 -105t8.5 -72t8.5 -41.5t12.5 -13.5h118q5 0 13.5 7.5t17 18t16 21l11.5 16.5l302 467h-176z" />
    <glyph glyph-name="FL0058h" unicode="X" horiz-adv-x="658" 
d="M231 0l144 127l52 -127h213l-107 266l299 264h-214l-142 -125l-50 125h-214l107 -264l-301 -266h213z" />
    <glyph glyph-name="FL0059h" unicode="Y" horiz-adv-x="656" 
d="M232 0h192l92 252l315 278h-214l-142 -125l-50 125h-214l113 -278z" />
    <glyph glyph-name="FL005Ah" unicode="Z" horiz-adv-x="616" 
d="M23 0h499q8 0 25.5 16t36 38t35 44.5t23.5 36.5h-269l413 395h-501q-14 -9 -33.5 -29.5t-38 -42.5t-32 -40t-14.5 -22v-1h269z" />
    <glyph glyph-name="FL005Bh" unicode="[" horiz-adv-x="412" 
d="M245 597l-237 -653h285q1 0 12.5 10t26.5 24.5l30 30.5t24 28q1 1 5 7l8.5 13l8.5 13.5t5 8.5h-165l139 383h90q8 0 25.5 16t36 38t35 44.5t23.5 36.5h-352z" />
    <glyph glyph-name="FL005Ch" unicode="\" horiz-adv-x="657" 
d="M426 0h213l-214 530h-214z" />
    <glyph glyph-name="FL005Dh" unicode="]" horiz-adv-x="412" 
d="M363 -57l238 653h-285q-1 0 -12.5 -10t-26.5 -24.5l-30.5 -30.5t-24.5 -28q-1 -1 -5 -7t-8 -13l-8 -13.5t-5 -8.5h165l-140 -383h-90q-9 0 -26 -16t-35.5 -38t-35 -45t-23.5 -36h352z" />
    <glyph glyph-name="FL005Eh" unicode="^" 
d="M503 369l-270 -369h-213q2 8 2 7v3l360 460q3 6 12 16t19.5 19.5t21 17t17.5 7.5h168q10 0 18.5 -11t14.5 -27t10.5 -33.5l7.5 -29.5l66 -429h-178z" />
    <glyph glyph-name="FL005Fh" unicode="_" horiz-adv-x="462" 
d="M350 0l143 135h-332l-143 -135h332z" />
    <glyph glyph-name="FL0060h" unicode="`" horiz-adv-x="170" 
d="M292 500l8 -22q0 -10 2.5 -20.5t-2.5 -24.5q-4 -9 -9 -16.5t-13 -11.5l-6 -4q-2 -2 -11 -2q-14 0 -29.5 10t-20.5 23l-6 23q-2 6 -3.5 12t1.5 13q10 25 37 42q21 8 28 8q11 0 16 -9.5t8 -20.5z" />
    <glyph glyph-name="a" unicode="a" 
d="M737 0l-66 429l-7.5 29.5t-10.5 33.5t-14.5 27t-18.5 11h-168q-7 0 -17.5 -7.5t-21 -17t-19.5 -19.5t-12 -16l-360 -460v-3q0 1 -2 -7h423q7 3 22 19t30.5 35t28 36t14.5 23l21 -113h178zM335 144l168 225l35 -235h-203v10z" />
    <glyph glyph-name="FL0062h" unicode="b" horiz-adv-x="689" 
d="M221 530l-193 -530h459q53 0 88.5 7.5t60.5 23t41.5 40.5t31.5 60l4 11l10 27t5 28q-1 20 -10 36.5t-20 25.5q12 6 26.5 18.5t27 29t21 35.5t8.5 39v2q0 28 -4.5 55t-16 47t-31 32.5t-49.5 12.5h-459zM308 242l55 152h205q2 0 9.5 -8.5t10.5 -13.5l0.5 -2t1.5 -3l-2 -5
q-1 -3 -4.5 -8.5l-7.5 -11.5t-7.5 -10.5t-4.5 -4.5h-160zM269 136l26 67h230q0 -7 -0.5 -14t-2.5 -10l-2 -5q-1 -1 -5 -8.5l-4 -7.5q-3 -3 -9 -6.5l-12 -7t-11 -6l-5 -2.5h-205z" />
    <glyph glyph-name="c" unicode="c" horiz-adv-x="631" 
d="M127 243q0 -72 28.5 -119t75.5 -74.5t106 -38.5t121 -11h80q38 30 67 65.5t52 69.5h-239q-17 0 -35.5 12t-34 30t-25.5 39.5t-10 40.5q0 15 8 41q6 17 17 34.5t24.5 31.5t28 22.5t27.5 8.5h260q35 30 64.5 63.5t58.5 71.5h-413q-53 0 -100 -26.5t-83 -67.5t-57 -92
t-21 -99v-2z" />
    <glyph glyph-name="FL0064h" unicode="d" horiz-adv-x="658" 
d="M707 239q-43 -65 -86.5 -110.5t-94 -74t-111 -41.5t-138.5 -13h-249l193 530h435q60 0 87 -33t27 -84q0 -39 -16 -85.5t-47 -88.5zM366 395l-95 -260h26q27 0 59 10.5t63 27.5t57.5 38.5t41.5 43.5l13.5 18t12.5 23l12 31t6 28q0 17 -7.5 28.5t-26.5 11.5h-162z" />
    <glyph glyph-name="e" unicode="e" horiz-adv-x="625" 
d="M221 530l-193 -530h503q1 0 12.5 10t26.5 24.5l30.5 30.5t24.5 28q1 1 5 7t8 13l8 13.5t5 8.5h-383l22 60h199l143 135h-231l-95 -92l57 157h308q8 0 25.5 16t36 38t35 44.5t23.5 36.5h-570z" />
    <glyph glyph-name="FL0066h" unicode="f" horiz-adv-x="621" 
d="M221 530l-193 -530h191l71 195h199l143 135h-231l-95 -92l57 157h308q8 0 25.5 16t36 38t35 44.5t23.5 36.5h-570z" />
    <glyph glyph-name="FL0067h" unicode="g" horiz-adv-x="640" 
d="M732 330l-125 -330h-149q-62 0 -121 11t-106 38.5t-75.5 74.5t-28.5 119q0 48 21 99t57 93t83 68.5t100 26.5h413q-29 -38 -58.5 -71.5t-64.5 -63.5h-260q-16 0 -31 -8.5t-27.5 -22.5t-22.5 -31.5t-16 -34.5q-8 -26 -8 -41q0 -19 9.5 -40.5t25 -39.5t34 -30t36.5 -12h59
l23 65h-113v1q1 3 12.5 19.5t27.5 37l33.5 41t31.5 31.5h240z" />
    <glyph glyph-name="h" unicode="h" horiz-adv-x="654" 
d="M28 0h192l69 190h216l-69 -190h190l193 530h-190l-75 -205h-152l-102 -105l113 310h-192z" />
    <glyph glyph-name="FL0069h" unicode="i" horiz-adv-x="252" 
d="M30 0h192l193 530h-192z" />
    <glyph glyph-name="FL006Ah" unicode="j" horiz-adv-x="573" 
d="M330 0h29q64 0 107.5 17.5t74.5 51t54 83t46 113.5l97 265h-190l-108 -297q-7 -14 -18.5 -31t-26 -32t-32.5 -25t-37 -10h-202q-32 -32 -56 -66t-45 -69h307z" />
    <glyph glyph-name="FL006Bh" unicode="k" horiz-adv-x="698" 
d="M28 0h192l87 238l196 -238h214l-192 265l346 265h-214l-331 -238l87 238h-192z" />
    <glyph glyph-name="FL006Ch" unicode="l" horiz-adv-x="560" 
d="M28 0l193 530h191l-144 -395h317q1 0 -11.5 -17t-31.5 -39.5t-40 -45t-35 -33.5h-439z" />
    <glyph glyph-name="FL006Dh" unicode="m" horiz-adv-x="836" 
d="M808 0l193 530h-242l-245 -266l-51 266h-242l-193 -530h192l108 298l55 -298h69l272 298l-108 -298h192z" />
    <glyph glyph-name="FL006Eh" unicode="n" horiz-adv-x="654" 
d="M28 0h192l108 298l56 -298h242l193 530h-190l-109 -298l-57 298h-242z" />
    <glyph glyph-name="FL006Fh" unicode="o" horiz-adv-x="738" 
d="M814 287q3 16 4 30t1 28q0 49 -17 84.5t-49 57.5t-77 32.5t-102 10.5h-149q-53 0 -105 -24.5t-95 -65t-72 -92t-36 -105.5q-2 -14 -3 -27t-1 -25q0 -56 19.5 -93t53.5 -58.5t81 -30.5t102 -9h117q60 0 115.5 24t99.5 63.5t74 91.5t39 108zM305 257q1 8 5 18.5l9 22.5
q9 17 24.5 34.5t33.5 31.5t36.5 22.5t34.5 8.5h98q25 0 40.5 -7.5t24.5 -20t12 -28.5t3 -32q0 -9 -0.5 -17.5t-1.5 -16.5q0 1 -2 -9l-4 -10q-2 -8 -11 -22q-9 -17 -27.5 -34.5t-39 -31.5t-38.5 -22.5t-27 -8.5h-83q-18 0 -34 10t-28 26t-19 35.5t-7 37.5v6q0 6 1 7z" />
    <glyph glyph-name="p" unicode="p" horiz-adv-x="675" 
d="M28 0h192l70 192h281q34 0 71 14t68 39.5t51 60.5t20 77q0 20 -5.5 45.5t-17.5 48t-31 38t-47 15.5h-459zM363 394h205q2 0 9.5 -8.5t10.5 -13.5l0.5 -2t1.5 -3l-2 -5q-1 -3 -4.5 -8.5l-7.5 -11.5t-7.5 -10.5t-4.5 -4.5h-160l-96 -85z" />
    <glyph glyph-name="FL0071h" unicode="q" horiz-adv-x="711" 
d="M793 287q2 14 3.5 27t1.5 25q0 47 -17.5 83t-49 60t-76 36t-98.5 12h-132q-53 0 -104.5 -24.5t-94.5 -64.5t-72 -92t-37 -106q-3 -24 -3 -45q0 -59 23 -97t61.5 -60.5t89.5 -31.5t107 -9h90l17 -28h200l-49 95q55 45 93 104t47 116zM351 254l54 -119h-13q-18 0 -34 10
t-28 26t-19 35.5t-7 37.5v6q0 6 1 7q1 8 5 18.5l9 22.5q9 17 24.5 34.5t33.5 31.5t36.5 22.5t34.5 8.5h69q27 0 44.5 -9t28 -23.5t14.5 -32t4 -35.5v-12q0 -8 -1 -10q0 1 -2 -9l-4 -10q-2 -8 -11 -22q-2 -5 -4.5 -9t-4.5 -8l-20 39h-210z" />
    <glyph glyph-name="r" unicode="r" horiz-adv-x="699" 
d="M28 0h192l66 182l11 8l206 -190h214l-196 201q40 3 85.5 11.5t83 28t62.5 52.5t25 84q0 23 -3.5 50t-15 50t-33.5 38t-58 15h-446zM583 366q0 -10 -6.5 -23.5t-21.5 -13.5h-160l-88 -89l57 156h201q12 0 15 -5.5t3 -13.5v-11z" />
    <glyph glyph-name="FL201Ch" unicode="s" horiz-adv-x="660" 
d="M503 168v6q0 8 -3 16.5t-11 8.5h-200q-30 0 -54 14.5t-41.5 37t-26.5 49.5t-9 53q0 24 14 54.5t36 58t50 46t56 18.5h510q-23 -34 -52.5 -68t-65.5 -68h-330q-11 0 -19 -15t-8 -24v-5q0 -1 4 -4.5t6 -5.5q4 -4 11.5 -7.5t8.5 -3.5h190q33 0 56 -15.5t37.5 -39t21 -50.5
t6.5 -50v-6q0 -26 -12 -55.5t-31.5 -54.5t-45 -41.5t-52.5 -16.5h-510q5 10 20.5 32t33 44.5t32.5 40t18 17.5h340q15 0 17.5 9t2.5 19v6z" />
    <glyph glyph-name="FL0074h" unicode="t" horiz-adv-x="616" 
d="M212 0h192l144 395h118q8 0 25.5 16t36 38t35 44.5t23.5 36.5h-501q-14 -9 -33.5 -29.5t-38 -42.5t-32 -40t-14.5 -22v-1h189z" />
    <glyph glyph-name="FL2022h" unicode="u" horiz-adv-x="682" 
d="M142 308l79 222h189l-54 -158.5l-28 -84.5t-11 -35.5t-2 -10.5q-5 -20 -5 -32q0 -35 19.5 -54.5t42.5 -19.5h49q24 0 44.5 10t36.5 25t28 32t19 31l108 297h190l-90 -247q-25 -69 -51 -121.5t-59 -88.5t-76 -54.5t-103 -18.5h-117q-71 0 -118 8.5t-75 26.5t-40 46.5
t-12 68.5q0 11 1 22t3 25q5 26 14 51.5t18 59.5z" />
    <glyph glyph-name="FL0076h" unicode="v" horiz-adv-x="741" 
d="M433 173l-48 357h-174l62 -429q3 -12 7 -29.5t10 -33.5t14 -27t19 -11h165q7 0 18 7.5t21.5 18t19.5 20.5l14 16l355 468h-206z" />
    <glyph glyph-name="FL0057h" unicode="w" horiz-adv-x="872" 
d="M101 199q-6 -17 -9.5 -33t-3.5 -33q0 -27 11 -51t36.5 -42t68 -29t105.5 -11h535l193 530h-190l-144 -396h-121l144 396h-190l-142 -391q-15 4 -30.5 5t-28 6.5t-20 17.5t-7.5 39q0 3 2 11t4 17.5t4.5 19t3.5 14.5l88 261h-188z" />
    <glyph glyph-name="FL0079h" unicode="x" horiz-adv-x="658" 
d="M231 0l144 127l52 -127h213l-107 266l299 264h-214l-142 -125l-50 125h-214l107 -264l-301 -266h213z" />
    <glyph glyph-name="FL007Bh" unicode="y" horiz-adv-x="656" 
d="M232 0h192l92 252l315 278h-214l-142 -125l-50 125h-214l113 -278z" />
    <glyph glyph-name="FL007Ah" unicode="z" horiz-adv-x="616" 
d="M23 0h499q8 0 25.5 16t36 38t35 44.5t23.5 36.5h-269l413 395h-501q-14 -9 -33.5 -29.5t-38 -42.5t-32 -40t-14.5 -22v-1h269z" />
    <glyph glyph-name="FL007Dh" unicode="{" horiz-adv-x="555" 
d="M388 597h352q-7 -14 -23.5 -36.5t-35 -44.5t-36 -38t-25.5 -16h-90l-139 -383h165q-1 -2 -5 -8.5l-8.5 -13.5l-8.5 -13t-5 -7q-9 -12 -24 -28l-30 -30.5t-26.5 -24.5t-12.5 -10h-285l91 251h-153l143 135h59z" />
    <glyph glyph-name="FL007Ch" unicode="|" horiz-adv-x="248" 
d="M-23 -141h192l294 810h-192z" />
    <glyph glyph-name="FL007Eh" unicode="}" horiz-adv-x="555" 
d="M363 -57h-352q7 13 23.5 36t35 45t35.5 38t26 16h90l140 383h-165q1 2 5 8.5l8 13.5t8 13t5 7q9 12 24.5 28l30.5 30.5t26.5 24.5t12.5 10h285l-91 -251h153l-144 -135h-59z" />
    <glyph glyph-name="FL0080h" unicode="~" horiz-adv-x="413" 
d="M352 262l64 68h98l-1.5 -2.5t-12.5 -13.5l-35 -35.5l-68 -69.5q-5 -4 -12.5 -9t-12.5 -5h-87l-33 68l-64 -68h-98l117 121q5 4 12.5 9t12.5 5h88z" />
    <glyph glyph-name="FL007Fh" horiz-adv-x="175" 
 />
    <glyph glyph-name="FL20ACh" unicode="&#x20ac;" horiz-adv-x="740" 
d="M493 164h-23q26 -29 57 -29h239q-23 -34 -52 -69.5t-67 -65.5h-80q-52 0 -103 7.5t-94.5 26.5t-75.5 50.5t-46 79.5h-170l125 80h33l2 30h-120l125 80h19q16 35 40.5 67t55 56t66 38.5t73.5 14.5h413q-29 -38 -58.5 -71.5t-64.5 -63.5h-260q-19 0 -36 -12t-30 -29h197
l-125 -80h-110l-2 -23q0 1 2 -7h195z" />
    <glyph glyph-name="FL201Ah" unicode="&#x201a;" horiz-adv-x="208" 
d="M38 28l15 42q12 29 41 50t61 21t46.5 -21t3.5 -50l-15 -42q-5 -14 -19 -31.5t-31 -32.5t-33.5 -25.5t-25.5 -10.5h-9q-15 0 -22.5 11.5t-10.5 27t-2.5 32.5t1.5 29z" />
    <glyph glyph-name="FL00B6h" unicode="&#x192;" horiz-adv-x="876" 
d="M953 291l-2 -2l-19 -26h-49l14 -48q1 -1 0 -7l-2 -5q-8 -20 -27 -26l-49 12l-33 -73q-9 -14 -26 -14q-12 0 -22 6.5t-24 17.5l-78 -67l-29 -6l-19 37l-125 -61l-15 6l13 37l-144 -24l-12 11l17 31l-136 13l9 23l24 21l-80 18q-17 0 -8 24l45 31l-48 32l5 30l63 12l-16 44
l18 37l62 -7q31 88 57 88h2l52 -25q32 31 53.5 49t38.5 25l34 -37l119 56l15 -19l-13 -19l4 -6l117 25l36 -6l-19 -37h128l7 -13q-12 -32 -34 -35l97 -33l-1 -3l-2 -4q-10 -30 -52 -36q60 -30 54 -47zM933 282l-1 12l-69 51l61 17h6l-2 13l-112 31l56 37h-146l27 43
l-150 -24l9 37l-8 6l-120 -56l-28 37l-84 -72q-7 -4 -16 -4q-17 0 -44 27l-41 -87l-68 7l-4 -26l18 -55l-72 -6l72 -55l-71 -31l118 -33l-57 -35l149 -7l-32 -43l146 31l8 -25l-14 -24l131 61l35 -37l81 75l61 -26l37 87l66 -14l4 8q6 17 -18 74zM844 326l-41 -80l-15 3
l34 83zM793 212l-21 -18l-7 14l15 10zM754 218q-22 0 -38 54l-20 -54l-15 -1l39 109l28 -70l32 76l14 -6zM664 218l-10 5q-2 26 -13 26q-13 0 -34 -26h-20q14 28 33.5 55t45.5 53q4 3 15 3q18 0 12 -34zM617 332l-44 -107l-26 -8l49 110zM528 214q-24 0 -39 52l-19 -51
l-16 -3l38 110l30 -70l30 75l15 -5zM471 290q-40 -76 -66 -76q-5 -1 -9 -1.5t-7 -0.5q-28 0 -26 18q25 73 71 96h4h6q30 0 27 -36zM392 330l-12 -27q-5 3 -9 3q-12 0 -31 -16q-22 -21 -30 -44q-9 -21 12 -21q5 0 9.5 0.5t9.5 1.5l-5 -18q-20 -5 -22 -5q-28 0 -19 48
q-1 1 2 8l2 6q18 52 93 64zM311 327l-44 -107l-25 -8l51 111zM666 272l2 37l-32 -37h30zM446 275q3 10 1 12q0 15 -12 15q-16 0 -41 -36l-3 -7q-9 -26 7 -26q7 0 28 9q15 19 20 33z" />
    <glyph glyph-name="FL201Fh" unicode="&#x201e;" horiz-adv-x="381" 
d="M211 28l15 42q12 29 41 50t61 21t46.5 -21t3.5 -50l-15 -42q-5 -14 -19 -31.5t-31 -32.5t-33.5 -25.5t-25.5 -10.5h-9q-15 0 -22.5 11.5t-10.5 27t-2.5 32.5t1.5 29zM38 28l15 42q12 29 41 50t61 21t46.5 -21t3.5 -50l-15 -42q-5 -14 -19 -31.5t-31 -32.5t-33.5 -25.5
t-25.5 -10.5h-9q-15 0 -22.5 11.5t-10.5 27t-2.5 32.5t1.5 29z" />
    <glyph glyph-name="FL2026h" unicode="&#x2026;" horiz-adv-x="561" 
d="M406 70q-11 -29 4 -49.5t47 -20.5q16 0 32 5.5t29.5 15t24 22t15.5 27.5q11 29 -3.5 50t-46.5 21t-61 -21t-41 -50zM228 70q-11 -29 4 -49.5t47 -20.5q16 0 32 5.5t29.5 15t24 22t15.5 27.5q11 29 -3.5 50t-46.5 21t-61 -21t-41 -50zM53 70q-11 -29 4 -49.5t47 -20.5
q16 0 32 5.5t29.5 15t24 22t15.5 27.5q11 29 -3.5 50t-46.5 21t-61 -21t-41 -50z" />
    <glyph glyph-name="FL2020h" unicode="&#x2020;" horiz-adv-x="432" 
d="M121 0l105 289h-102l143 135h8l39 106h192l-39 -106h102l-143 -135h-8l-105 -289h-192z" />
    <glyph glyph-name="FL2021h" unicode="&#x2021;" horiz-adv-x="432" 
d="M121 0l37 102h-102l143 135h8l19 52h-102l143 135h8l39 106h192l-39 -106h102l-143 -135h-8l-19 -52h102l-143 -135h-8l-37 -102h-192z" />
    <glyph glyph-name="FL02C6h" unicode="&#x2c6;" horiz-adv-x="301" 
d="M319 472l-59 -59h-91l108 105l10.5 7.5t11.5 4.5h62q8 0 14.5 -8.5l11.5 -14.5l46 -94h-82z" />
    <glyph glyph-name="FL2030h" unicode="&#x2030;" horiz-adv-x="1138" 
d="M85 0h171l643 530h-173zM511 408q6 33 -0.5 56t-22.5 38t-41 21.5t-55 6.5h-66q-23 0 -46 -10.5t-43.5 -27.5t-36 -38.5t-23.5 -43.5q-5 -12 -6 -24q-5 -36 2.5 -59.5t25 -37t43 -19t55.5 -5.5h50q26 0 51 10.5t46 27.5t37 38.5t24 43.5l4 11q2 8 2 12zM281 397l6 16
q8 14 22.5 26t27.5 12h30q18 0 25 -9.5t7 -23.5q0 -12 -1 -15l-3 -7q-1 -3 -2 -5l-2 -4q-4 -7 -11 -14t-14.5 -12t-14.5 -8.5t-11 -3.5h-26q-14 0 -25 16.5t-8 31.5zM815 143q11 66 -24 94t-96 28h-66q-23 0 -46 -10.5t-43 -27.5t-35.5 -38.5t-23.5 -43.5q-5 -12 -6 -24
q-5 -36 2.5 -59.5t25 -37t43 -19t55.5 -5.5h50q26 0 51 10.5t46 27.5t37 38.5t24 43.5l4 11q1 5 1.5 8t0.5 4zM585 132l6 16q8 14 22.5 26t27.5 12h30q19 0 25 -9.5t6 -23.5q0 -12 -1 -15l-2 -7q-1 -4 -5 -9q-8 -14 -24.5 -26t-25.5 -12h-26q-14 0 -25 16.5t-8 31.5z
M1160 143q11 66 -24 94t-96 28h-66q-23 0 -46 -10.5t-43 -27.5t-35.5 -38.5t-23.5 -43.5q-5 -12 -6 -24q-5 -36 2.5 -59.5t25 -37t43 -19t55.5 -5.5h50q26 0 51 10.5t46 27.5t37 38.5t24 43.5l4 11q1 5 1.5 8t0.5 4zM930 132l6 16q8 14 22.5 26t27.5 12h30q19 0 25 -9.5
t6 -23.5q0 -12 -1 -15l-2 -7q-1 -4 -5 -9q-8 -14 -24.5 -26t-25.5 -12h-26q-14 0 -25 16.5t-8 31.5z" />
    <glyph glyph-name="FL0160h" unicode="&#x160;" horiz-adv-x="660" 
d="M503 168v6q0 8 -3 16.5t-11 8.5h-200q-30 0 -54 14.5t-41.5 37t-26.5 49.5t-9 53q0 24 14 54.5t36 58t50 46t56 18.5h510q-23 -34 -52.5 -68t-65.5 -68h-330q-11 0 -19 -15t-8 -24v-5q0 -1 4 -4.5t6 -5.5q4 -4 11.5 -7.5t8.5 -3.5h190q29 0 51.5 -16t38 -39.5t23.5 -51
t8 -50.5v-4q0 -26 -12 -55.5t-31.5 -54.5t-45 -41.5t-52.5 -16.5h-510q5 10 20.5 32t33 44.5t32.5 40t18 17.5h340q15 0 17.5 9t2.5 19v6zM548 649l59 59h91l-108 -105l-10.5 -7.5t-11.5 -4.5h-62q-8 0 -14.5 8.5l-11.5 14.5l-46 94h82z" />
    <glyph glyph-name="FL2039h" unicode="&#x2039;" horiz-adv-x="173" 
d="M185 273l46 -37l-33 -91l-80 69q-2 3 -5 8t-1 10l23 62q3 8 15 18t20 16l124 81l-30 -82z" />
    <glyph glyph-name="FL0152h" unicode="&#x152;" horiz-adv-x="1055" 
d="M127 243q0 48 21 99t57 93t83 68.5t100 26.5h833q-7 -14 -23.5 -36.5t-35 -44.5t-36 -38t-25.5 -16h-308l-57 -157l95 92h231l-143 -135h-199l-22 -60h383q-1 -2 -5 -8.5l-8 -13.5t-8 -13t-5 -7q-9 -12 -24.5 -28l-30.5 -30.5t-26.5 -24.5t-12.5 -10h-503q-62 0 -121 11
t-106 38.5t-75.5 74.5t-28.5 119zM602 395h-184q-16 0 -31 -8.5t-27.5 -22.5t-22.5 -31.5t-16 -34.5q-8 -26 -8 -41q0 -19 10 -40.5t25.5 -39.5t34 -30t35.5 -12h89z" />
    <glyph glyph-name="FL017Dh" unicode="&#x17d;" horiz-adv-x="616" 
d="M522 0h-499l413 395h-269v1q1 4 14.5 22t32 40t38 42.5t33.5 29.5h501l-413 -395h269q-7 -14 -23.5 -36.5t-35 -44.5t-36 -38t-25.5 -16zM548 649l59 59h91l-108 -105l-10.5 -7.5t-11.5 -4.5h-62q-8 0 -14.5 8.5l-11.5 14.5l-46 94h82z" />
    <glyph glyph-name="FL2018h" unicode="&#x2018;" horiz-adv-x="181" 
d="M312 440l-13 -37q-10 -26 -35 -45t-51 -19q-27 0 -38 19t-1 45l13 37q5 13 17.5 28.5t26.5 29t27.5 23t21.5 9.5h8q12 0 17.5 -10t7.5 -24.5t1 -30t-2 -25.5z" />
    <glyph glyph-name="FL2019h" unicode="&#x2019;" horiz-adv-x="181" 
d="M185 430l13 37q10 26 34.5 45t50.5 19q27 0 38.5 -19t1.5 -45l-13 -37q-5 -13 -17.5 -28.5t-26.5 -29t-28 -23t-21 -9.5h-8q-12 0 -18 10t-8 24.5t-1 29.5t3 26z" />
    <glyph glyph-name="FL201Eh" unicode="&#x201c;" horiz-adv-x="326" 
d="M313 440l-13 -37q-10 -26 -35 -45t-51 -19q-27 0 -38 19t-1 45l13 37q5 13 17.5 28.5t26.5 29t27.5 23t21.5 9.5h8q12 0 17.5 -10t7.5 -24.5t1 -30t-2 -25.5zM458 440l-13 -37q-10 -26 -35 -45t-51 -19q-27 0 -38 19t-1 45l13 37q5 13 17.5 28.5t26.5 29t27.5 23
t21.5 9.5h8q12 0 17.5 -10t7.5 -24.5t1 -30t-2 -25.5z" />
    <glyph glyph-name="FL201Dh" unicode="&#x201d;" horiz-adv-x="326" 
d="M330 430l13 37q10 26 34.5 45t50.5 19q27 0 38.5 -19t1.5 -45l-13 -37q-5 -13 -17.5 -28.5t-26.5 -29t-28 -23t-21 -9.5h-8q-12 0 -18 10t-8 24.5t-1 29.5t3 26zM185 430l13 37q10 26 34.5 45t50.5 19q27 0 38.5 -19t1.5 -45l-13 -37q-5 -13 -17.5 -28.5t-26.5 -29
t-28 -23t-21 -9.5h-8q-12 0 -18 10t-8 24.5t-1 29.5t3 26z" />
    <glyph glyph-name="FL2023h" unicode="&#x2022;" horiz-adv-x="356" 
d="M124 257q1 8 5 18.5l9 22.5q9 17 24.5 34.5t33.5 31.5t36.5 22.5t34.5 8.5h81q23 0 38.5 -7t24.5 -18.5t13 -26t4 -30.5q0 -11 -0.5 -20.5t-1.5 -19.5q0 1 -2 -9l-4 -10q-2 -8 -11 -22q-9 -17 -26.5 -34.5t-37 -31.5t-38 -22.5t-30.5 -8.5h-66q-20 0 -37 12t-29 30
t-18 39.5t-3 40.5z" />
    <glyph glyph-name="FL2013h" unicode="&#x2013;" horiz-adv-x="361" 
d="M320 195l143 135h-231l-143 -135h231z" />
    <glyph glyph-name="FL2014h" unicode="&#x2014;" horiz-adv-x="432" 
d="M391 195l143 135h-302l-143 -135h302z" />
    <glyph glyph-name="FL02DCh" unicode="&#x2dc;" horiz-adv-x="389" 
d="M413 471l59 59h91l-2 -2l-12 -12l-31.5 -31l-61.5 -60q-5 -3 -11.5 -7.5t-11.5 -4.5h-82l-32 59l-59 -59h-91l108 105l10.5 7.5t11.5 4.5h82z" />
    <glyph glyph-name="FL0161h" unicode="&#x161;" horiz-adv-x="660" 
d="M503 168v6q0 8 -3 16.5t-11 8.5h-200q-30 0 -54 14.5t-41.5 37t-26.5 49.5t-9 53q0 24 14 54.5t36 58t50 46t56 18.5h510q-23 -34 -52.5 -68t-65.5 -68h-330q-11 0 -19 -15t-8 -24v-5q0 -1 4 -4.5t6 -5.5q4 -4 11.5 -7.5t8.5 -3.5h190q29 0 51.5 -16t38 -39.5t23.5 -51
t8 -50.5v-4q0 -26 -12 -55.5t-31.5 -54.5t-45 -41.5t-52.5 -16.5h-510q5 10 20.5 32t33 44.5t32.5 40t18 17.5h340q15 0 17.5 9t2.5 19v6zM548 649l59 59h91l-108 -105l-10.5 -7.5t-11.5 -4.5h-62q-8 0 -14.5 8.5l-11.5 14.5l-46 94h82z" />
    <glyph glyph-name="FL203Ah" unicode="&#x203a;" horiz-adv-x="173" 
d="M188 279l-46 37l33 91h1v1l79 -70q2 -3 4.5 -8t0.5 -10l-22 -62q-3 -8 -15 -18t-20 -16l-124 -81l30 82z" />
    <glyph glyph-name="FL0153h" unicode="&#x153;" horiz-adv-x="1055" 
d="M127 243v2q0 48 21 99t57 92t83 67.5t100 26.5h833q-7 -14 -23.5 -36.5t-35 -44.5t-36 -38t-25.5 -16h-308l-57 -157l95 92h231l-143 -135h-199l-22 -60h383q-1 -2 -5 -8.5l-8 -13.5t-8 -13t-5 -7q-9 -12 -24.5 -28l-30.5 -30.5t-26.5 -24.5t-12.5 -10h-503
q-62 0 -121 11t-106 38.5t-75.5 74.5t-28.5 119zM602 395h-184q-16 0 -31 -8.5t-27.5 -22.5t-22.5 -31.5t-16 -34.5q-8 -26 -8 -41q0 -19 10 -40.5t25.5 -39.5t34 -30t35.5 -12h89z" />
    <glyph glyph-name="FL017Eh" unicode="&#x17e;" horiz-adv-x="616" 
d="M522 0h-499l413 395h-269v1q1 4 14.5 22t32 40t38 42.5t33.5 29.5h501l-413 -395h269q-7 -14 -23.5 -36.5t-35 -44.5t-36 -38t-25.5 -16zM548 649l59 59h91l-108 -105l-10.5 -7.5t-11.5 -4.5h-62q-8 0 -14.5 8.5l-11.5 14.5l-46 94h82z" />
    <glyph glyph-name="FL0178h" unicode="&#x178;" horiz-adv-x="656" 
d="M324 252l-113 278h214l50 -125l142 125h214l-315 -278l-92 -252h-192zM414 652q9 25 33.5 42t51.5 17t39 -17t3 -42t-33.5 -42t-51.5 -17t-39 17t-3 42zM722 652q-9 -25 -33 -42t-51 -17t-39.5 17t-3.5 42t34 42t52 17t38.5 -17t2.5 -42z" />
    <glyph glyph-name="FL00A1h" unicode="&#xa1;" horiz-adv-x="248" 
d="M351 359h-192l-131 -359h192zM369 460q11 29 -3.5 49.5t-46.5 20.5t-61.5 -20.5t-40.5 -49.5t4 -50t47 -21q16 0 32 5.5t29.5 15.5t24 22.5t15.5 27.5z" />
    <glyph glyph-name="FL00A2h" unicode="&#xa2;" horiz-adv-x="631" 
d="M267 -142h126l52 142h93q38 30 67 65.5t52 69.5h-163l95 260h89q35 30 64.5 63.5t58.5 71.5h-163l50 138h-126l-50 -138h-124q-53 0 -100 -26.5t-83 -67.5t-57 -92t-21 -99v-2q0 -52 15 -91t41.5 -66.5t62.5 -45t78 -26.5zM463 395l-89 -243q-24 19 -42.5 47.5
t-18.5 55.5v2q0 15 8 41q6 17 16 34.5t22.5 31.5t27.5 22.5t31 8.5h45z" />
    <glyph glyph-name="FL00A3h" unicode="&#xa3;" horiz-adv-x="674" 
d="M656 0q3 37 3 72q0 39 -7 64h-196q-2 0 -9 8.5t-10 13.5l-0.5 2t-1.5 3l2 5q2 3 6 10t9 14h197l-56 135h-87q-2 0 -2 4q0 8 1 17t3 14l2 5q1 1 2.5 3l1.5 2q4 3 9.5 6.5l11 7t10 6t5.5 2.5h59q5 35 5.5 69.5t-6.5 66.5h-70q-26 0 -56 -15.5t-59 -38t-54 -48t-40 -45.5
q-8 -11 -13.5 -22l-10.5 -22q-2 -5 -3 -9l-2 -8h-71l-143 -135h155q-5 -8 -7.5 -15t-4.5 -14l-9 -23h-59l-143 -135h638z" />
    <glyph glyph-name="FL00A4h" unicode="&#xa4;" horiz-adv-x="658" 
d="M652 279q4 26 0.5 46t-12.5 36l192 169h-214l-121 -107h-11h-17l-43 107h-214l64 -157q-31 -26 -51.5 -58t-23.5 -62q-4 -26 -0.5 -46t12.5 -35l-1 -1l-194 -171h213l124 109h20h8l44 -109h213l-65 160q32 25 52 57t25 62zM325 261q0 5 3 11t6 13q13 21 37 39.5t46 18.5
h54q21 0 32.5 -7t17 -17.5t6 -23.5t-0.5 -24q0 -4 -4 -12q-2 -7 -6 -13q-6 -10 -17 -20t-23.5 -18.5t-24.5 -13.5t-20 -5h-44q-14 0 -25.5 7t-20 17.5t-13 23.5t-3.5 24z" />
    <glyph glyph-name="FL00A5h" unicode="&#xa5;" horiz-adv-x="656" 
d="M232 0l23 63h-160l125 80h64l11 30h-160l125 80h63l-112 277h214l50 -125l142 125h214l-314 -277h158l-125 -80h-63l-11 -30h159l-125 -80h-63l-23 -63h-192z" />
    <glyph glyph-name="FL00A6h" unicode="&#xa6;" horiz-adv-x="248" 
d="M-23 -141h192l294 810h-192z" />
    <glyph glyph-name="FL00A7h" unicode="&#xa7;" horiz-adv-x="658" 
d="M652 279q4 26 0.5 46t-12.5 36l192 169h-214l-121 -107h-28q-52 0 -100 -10t-93 -40q-24 -20 -42 -44t-27 -48q-2 -8 -4 -14.5t-2 -13.5q-4 -26 -0.5 -46t12.5 -35l-195 -172h213l124 109h28q61 0 107.5 15t84.5 36q26 20 43.5 43.5t25.5 47.5q3 7 4.5 14t3.5 14z
M325 261q0 1 2 7l7 17q13 21 37 39.5t46 18.5h54q21 0 32.5 -7t17 -17.5t6 -23.5t-0.5 -24q0 -4 -4 -12q-2 -7 -6 -13q-6 -10 -17 -20t-23.5 -18.5t-24.5 -13.5t-20 -5h-44q-14 0 -25.5 7t-20 17.5t-13 23.5t-3.5 24z" />
    <glyph glyph-name="FL00A8h" unicode="&#xa8;" horiz-adv-x="364" 
d="M199 471q9 25 33.5 42t51.5 17t39 -17t3 -42t-33.5 -42t-51.5 -17t-39 17t-3 42zM507 471q-9 -25 -33 -42t-51 -17t-39.5 17t-3.5 42t34 42t52 17t38.5 -17t2.5 -42z" />
    <glyph glyph-name="copyright" unicode="&#xa9;" horiz-adv-x="278" 
d="M355 594q-25 0 -59 -14q-34 -15 -57 -41q-12 -14 -21 -27.5t-14 -28.5q-11 -29 -5 -54q3 -14 9.5 -24t16.5 -18q23 -14 50 -14q13 0 60 14q17 8 30.5 18t25.5 24q25 25 35 54q11 33 5 56q-5 26 -27 41q-23 14 -49 14zM349 576q25 0 40 -12q20 -14 23 -34q3 -23 -5 -47
q-10 -25 -29 -45q-22 -24 -46 -34q-27 -12 -50 -12q-24 0 -42 12q-18 15 -22 34q-3 21 5 45q5 12 11.5 24t17.5 23q21 23 47.5 34.5t49.5 11.5zM345 466q-18 -28 -48 -28q-37 0 -20 45q8 23 23 35t33 12q22 0 25 -23l18 4q2 35 -37 35q-27 0 -49 -16t-33 -47
q-11 -30 -1 -46.5t36 -16.5q20 0 38.5 11t30.5 30z" />
    <glyph glyph-name="FL00ABh" unicode="&#xab;" horiz-adv-x="308" 
d="M320 273l46 -37l-33 -91l-80 69q-2 3 -5 8t-1 10l23 62q3 8 15 18t20 16l124 81l-30 -82zM185 272l46 -37l-34 -91l-79 69q-2 3 -5 8t-1 10l23 62q3 8 15 18t20 16l123 81l-29 -82z" />
    <glyph glyph-name="FL00ACh" unicode="&#xac;" horiz-adv-x="473" 
d="M346 98l35 97h-292l143 135h333l-84 -232h-135z" />
    <glyph glyph-name="FL00ADh" unicode="&#xad;" horiz-adv-x="318" 
d="M277 195l143 135h-188l-143 -135h188z" />
    <glyph glyph-name="registered" unicode="&#xae;" horiz-adv-x="278" 
d="M356 595q-24 0 -60 -14q-33 -15 -56 -41q-12 -14 -21.5 -27.5t-14.5 -28.5q-10 -28 -4 -54q3 -14 9 -24t16 -18q23 -14 50 -14q13 0 60 14q17 8 31 18t26 24q23 26 34 54q11 30 6 56t-28 41q-20 14 -48 14zM349 577q24 0 41 -12q19 -13 22 -34q4 -20 -5 -47
q-7 -21 -28 -45q-24 -24 -47 -34q-27 -12 -50 -12q-24 0 -42 12q-18 15 -21 34q-4 18 4 45q9 24 29 47q22 23 48 34.5t49 11.5zM245 424h19l19 50h11q10 0 13 -4q7 -5 11 -28l3 -18h24l-6 23q-4 13 -6.5 19.5t-10.5 10.5q16 1 28.5 10.5t17.5 22.5q3 10 0 18q0 7 -10 11
q-4 4 -29 4h-40zM288 490l13 36h21q19 0 20 -1q9 -4 5 -17q-3 -8 -11 -13t-25 -5h-23z" />
    <glyph glyph-name="FL00AFh" unicode="&#xaf;" horiz-adv-x="462" 
d="M494 395l143 135h-332l-143 -135h332z" />
    <glyph glyph-name="FL00B0h" unicode="&#xb0;" horiz-adv-x="183" 
d="M199 471q9 25 33.5 42t51.5 17t39 -17t3 -42t-33.5 -42t-51.5 -17t-39 17t-3 42z" />
    <glyph glyph-name="FL00B1h" unicode="&#xb1;" horiz-adv-x="461" 
d="M225 164l35 97h-148l143 135h54l38 103h135l-38 -103h142l-143 -135h-48l-35 -97h-135zM17 0l143 135h331l-143 -135h-331z" />
    <glyph glyph-name="FL00B4h" unicode="&#xb4;" horiz-adv-x="170" 
d="M242 500l-24 -22q-8 -10 -17.5 -20.5t-14.5 -24.5q-4 -9 -4.5 -16.5t4.5 -11.5l4 -4q2 -2 9 -2t17 3t20.5 7.5t20 10.5t16.5 12l24 23l11.5 12t8.5 13q10 25 -7 42q-11 8 -22 8t-23 -9.5t-23 -20.5z" />
    <glyph glyph-name="FL00B5h" unicode="&#xb5;" horiz-adv-x="837" 
d="M914 282l-1 12l-69 51l61 17h6l-2 13l-112 31l56 37h-146l27 43l-150 -24l9 37l-8 6l-120 -56l-28 37l-84 -72q-7 -4 -16 -4q-17 0 -44 27l-41 -87l-68 7l-4 -26l18 -55l-72 -6l72 -55l-71 -31l118 -33l-57 -35l149 -7l-32 -43l146 31l8 -25l-14 -24l131 61l35 -37l81 75
l61 -26l37 87l66 -14l4 8q6 17 -18 74zM825 326l-41 -80l-15 3l34 83zM774 212l-21 -18l-7 14l15 10zM735 218q-22 0 -38 54l-20 -54l-15 -1l39 109l28 -70l32 76l14 -6zM645 218l-10 5q-2 26 -13 26q-13 0 -34 -26h-20q14 28 33.5 55t45.5 53q4 3 15 3q18 0 12 -34z
M598 332l-44 -107l-26 -8l49 110zM509 214q-24 0 -39 52l-19 -51l-16 -3l38 110l30 -70l30 75l15 -5zM452 290q-40 -76 -66 -76q-5 -1 -9 -1.5t-7 -0.5q-28 0 -26 18q25 73 71 96h4h6q30 0 27 -36zM373 330l-12 -27q-5 3 -9 3q-12 0 -31 -16q-22 -21 -30 -44q-9 -21 12 -21
q5 0 9.5 0.5t9.5 1.5l-5 -18q-20 -5 -22 -5q-28 0 -19 48q-1 1 2 8l2 6q18 52 93 64zM292 327l-44 -107l-25 -8l51 111zM647 272l2 37l-32 -37h30zM427 275q3 10 1 12q0 15 -12 15q-16 0 -41 -36l-3 -7q-9 -26 7 -26q7 0 28 9q15 19 20 33z" />
    <glyph glyph-name="FL00B7h" unicode="&#xb6;" horiz-adv-x="616" 
d="M707 326l-41 -80l-15 3l34 83zM656 212l-21 -18l-7 14l15 10zM617 218q-22 0 -38 54l-20 -54l-15 -1l39 109l28 -70l32 76l14 -6zM527 218l-10 5q-2 26 -13 26q-13 0 -34 -26h-20q14 28 33.5 55t45.5 53q4 3 15 3q18 0 12 -34zM480 332l-44 -107l-26 -8l49 110zM391 214
q-24 0 -39 52l-19 -51l-16 -3l38 110l30 -70l30 75l15 -5zM334 290q-40 -76 -66 -76q-5 -1 -9 -1.5t-7 -0.5q-28 0 -26 18q25 73 71 96h4h6q30 0 27 -36zM255 330l-12 -27q-5 3 -9 3q-12 0 -31 -16q-22 -21 -30 -44q-9 -21 12 -21q5 0 9.5 0.5t9.5 1.5l-5 -18q-20 -5 -22 -5
q-28 0 -19 48q-1 1 2 8l2 6q18 52 93 64zM174 327l-44 -107l-25 -8l51 111zM529 272l2 37l-32 -37h30zM309 275q3 10 1 12q0 15 -12 15q-16 0 -41 -36l-3 -7q-9 -26 7 -26q7 0 28 9q15 19 20 33z" />
    <glyph glyph-name="FL00B9h" unicode="&#xb7;" horiz-adv-x="183" 
d="M131 282q9 25 33 42t51 17q22 0 34.5 -11.5t12.5 -28.5q0 -11 -4 -19q-9 -25 -34 -42t-52 -17q-21 0 -33 11t-12 28q0 13 4 20z" />
    <glyph glyph-name="FL00B8h" unicode="&#xb8;" horiz-adv-x="176" 
d="M-155 -116l122 92h53l11 30h119l-44 -122h-261z" />
    <glyph glyph-name="FL00BBh" unicode="&#xbb;" horiz-adv-x="308" 
d="M189 279l-46 37l33 91l80 -69q2 -3 4.5 -8t0.5 -10l-22 -62q-3 -8 -15 -18t-20 -16l-124 -81l30 82zM324 280l-46 37l33 91l80 -69q2 -3 5 -8t1 -10l-23 -62q-3 -8 -15 -18t-20 -16l-124 -81l30 82z" />
    <glyph glyph-name="FL00BFh" unicode="&#xbf;" horiz-adv-x="654" 
d="M708 360h-155v-1q-2 -3 -17.5 -13.5t-46.5 -10.5h-149q-30 0 -65 -15t-69 -38.5t-64 -51.5t-48 -53q-16 -22 -24.5 -48.5t-8.5 -52.5q0 -32 14 -54t46 -22h442l29 29.5l32 34.5l31 36.5t25 35.5h-398q-9 0 -9 11q0 7 3 15t8 13l4 5q0 1 6 4.5t10 5.5q7 4 19 9.5t13 5.5
h139q26 0 60 15.5t67 39t61.5 50.5t44.5 50zM754 460q5 17 5 24q0 20 -14.5 33t-40.5 13q-32 0 -61.5 -20.5t-40.5 -49.5q-4 -8 -4 -23q0 -21 14.5 -34.5t40.5 -13.5q16 0 32 5.5t29.5 15.5t24 22.5t15.5 27.5z" />
    <glyph glyph-name="FL00C0h" unicode="&#xc0;" 
d="M335 134h203l-35 235l-168 -225v-10zM559 0l-21 113q-2 -6 -14.5 -23t-28 -36t-30.5 -35t-22 -19h-423q2 8 2 7v3l360 460q3 6 12 16t19.5 19.5t21 17t17.5 7.5h168q10 0 18.5 -11t14.5 -27t10.5 -33.5l7.5 -29.5l66 -429h-178zM601 665q0 -10 2.5 -20.5t-2.5 -24.5
q-4 -9 -9 -16.5t-13 -11.5l-6 -4q-2 -2 -11 -2q-14 0 -29.5 10t-20.5 23l-6 23q-2 6 -3.5 12t1.5 13q10 25 37 42q21 8 28 8q11 0 16.5 -9.5t7.5 -20.5z" />
    <glyph glyph-name="FL00C1h" unicode="&#xc1;" 
d="M335 134h203l-35 235l-168 -225v-10zM559 0l-21 113q-2 -6 -14.5 -23t-28 -36t-30.5 -35t-22 -19h-423q2 8 2 7v3l360 460q3 6 12 16t19.5 19.5t21 17t17.5 7.5h168q10 0 18.5 -11t14.5 -27t10.5 -33.5l7.5 -29.5l66 -429h-178zM535 666l24 22q11 11 23 20.5t23 9.5
t22 -8q17 -17 7 -42q-2 -7 -8 -13l-12 -12l-23 -23q-14 -13 -37 -23t-37 -10q-8 0 -10 2l-3 4q-5 4 -4.5 11.5t3.5 16.5q5 14 15 24.5t17 20.5z" />
    <glyph glyph-name="FL00C2h" unicode="&#xc2;" 
d="M335 134h203l-35 235l-168 -225v-10zM559 0l-21 113q-2 -6 -14.5 -23t-28 -36t-30.5 -35t-22 -19h-423q2 8 2 7v3l360 460q3 6 12 16t19.5 19.5t21 17t17.5 7.5h168q10 0 18.5 -11t14.5 -27t10.5 -33.5l7.5 -29.5l66 -429h-178zM567 652l-57 -59q-92 -1 -91 0l107 105
q5 3 10.5 7.5t10.5 4.5h62q8 0 15.5 -8.5t11.5 -14.5l47 -94h-82z" />
    <glyph glyph-name="FL00C3h" unicode="&#xc3;" 
d="M335 134h203l-35 235l-168 -225v-10zM559 0l-21 113q-2 -6 -14.5 -23t-28 -36t-30.5 -35t-22 -19h-423q2 8 2 7v3l360 460q3 6 12 16t19.5 19.5t21 17t17.5 7.5h168q10 0 18.5 -11t14.5 -27t10.5 -33.5l7.5 -29.5l66 -429h-178zM633 651l58 59h91l-1.5 -2t-11.5 -12
l-32 -31l-62 -60l-10.5 -7.5t-11.5 -4.5h-82l-33 59l-58 -59h-91l107 105q5 3 11 7.5t11 4.5h82z" />
    <glyph glyph-name="FL00C4h" unicode="&#xc4;" 
d="M335 134h203l-35 235l-168 -225v-10zM559 0l-21 113q-2 -6 -14.5 -23t-28 -36t-30.5 -35t-22 -19h-423q2 8 2 7v3l360 460q3 6 12 16t19.5 19.5t21 17t17.5 7.5h168q10 0 18.5 -11t14.5 -27t10.5 -33.5l7.5 -29.5l66 -429h-178zM419 653q9 25 33 42t51 17t39.5 -17
t3.5 -42t-34 -42t-52 -17t-38.5 17t-2.5 42zM727 653q-9 -25 -33.5 -42t-51.5 -17t-39 17t-3 42t33.5 42t51.5 17t39 -17t3 -42z" />
    <glyph glyph-name="FL00C5h" unicode="&#xc5;" 
d="M335 134h203l-35 235l-168 -225v-10zM559 0l-21 113q-2 -6 -14.5 -23t-28 -36t-30.5 -35t-22 -19h-423q2 8 2 7v3l360 460q3 6 12 16t19.5 19.5t21 17t17.5 7.5h168q10 0 18.5 -11t14.5 -27t10.5 -33.5l7.5 -29.5l66 -429h-178zM511 653q9 25 33 42t51 17t39.5 -17
t3.5 -42t-34 -42t-52 -17t-38.5 17t-2.5 42z" />
    <glyph glyph-name="FL00C6h" unicode="&#xc6;" horiz-adv-x="1163" 
d="M754 530h570q-7 -14 -23.5 -36.5t-35 -44.5t-36 -38t-25.5 -16h-308l-57 -157l95 92h231l-143 -135h-199l-22 -60h383q-1 -2 -5 -8.5l-8 -13.5t-8 -13t-5 -7q-9 -12 -24.5 -28l-30.5 -30.5t-26.5 -24.5t-12.5 -10h-505l-21 113q-2 -6 -14.5 -23t-28 -36t-30.5 -35
t-22 -19h-423q2 8 2 7v3l360 460q3 6 12 16t19.5 19.5t21 17t17.5 7.5h168q9 0 18 -11t16 -27t11.5 -33t5.5 -30l14 -89zM335 144v-10h203l-35 235z" />
    <glyph glyph-name="FL00C7h" unicode="&#xc7;" horiz-adv-x="631" 
d="M108 -116h261l42 117q4 -1 12 -1h11h24h80q38 30 67 65.5t52 69.5h-239q-17 0 -35.5 12t-34 30t-25.5 39.5t-10 40.5q0 15 8 41q6 17 16 34.5t22.5 31.5t27.5 22.5t31 8.5h260q35 30 64.5 63.5t58.5 71.5h-413q-53 0 -100 -26.5t-83 -68.5t-57 -93t-21 -99t13 -85t36 -64
t54.5 -45t68.5 -29l-16 -44h-53z" />
    <glyph glyph-name="FL00C8h" unicode="&#xc8;" horiz-adv-x="625" 
d="M28 0l193 530h570q-7 -14 -23.5 -36.5t-35 -44.5t-36 -38t-25.5 -16h-308l-57 -157l95 92h231l-143 -135h-199l-22 -60h383q-1 -2 -5 -8.5l-8 -13.5t-8 -13t-5 -7q-9 -12 -24.5 -28l-30.5 -30.5t-26.5 -24.5t-12.5 -10h-503zM550 692l8 -22q0 -10 2 -20.5t-3 -24.5
q-3 -9 -8 -16.5t-13 -11.5l-6 -4q-8 -2 -11 -2q-14 0 -29.5 10t-20.5 23l-7 23q-2 6 -3 12t2 13q8 26 37 42q21 8 28 8q11 0 16 -9.5t8 -20.5z" />
    <glyph glyph-name="FL00C9h" unicode="&#xc9;" horiz-adv-x="625" 
d="M28 0l193 530h570q-7 -14 -23.5 -36.5t-35 -44.5t-36 -38t-25.5 -16h-308l-57 -157l95 92h231l-143 -135h-199l-22 -60h383q-1 -2 -5 -8.5l-8 -13.5t-8 -13t-5 -7q-9 -12 -24.5 -28l-30.5 -30.5t-26.5 -24.5t-12.5 -10h-503zM493 671l24 22q11 11 23 20.5t23 9.5t22 -8
q17 -17 7 -42q-2 -7 -8 -13l-12 -12l-24 -23q-7 -6 -16.5 -12t-20 -10.5t-20.5 -7.5t-17 -3t-9 2l-3 4q-5 5 -5 11q0 10 4 17q5 14 14.5 24.5t17.5 20.5z" />
    <glyph glyph-name="FL00CAh" unicode="&#xca;" horiz-adv-x="625" 
d="M28 0l193 530h570q-7 -14 -23.5 -36.5t-35 -44.5t-36 -38t-25.5 -16h-308l-57 -157l95 92h231l-143 -135h-199l-22 -60h383q-1 -2 -5 -8.5l-8 -13.5t-8 -13t-5 -7q-9 -12 -24.5 -28l-30.5 -30.5t-26.5 -24.5t-12.5 -10h-503zM528 655l-59 -59h-91l107 105q5 3 11.5 7.5
t11.5 4.5h62q8 0 14.5 -8.5t10.5 -14.5l47 -94h-82z" />
    <glyph glyph-name="FL00CBh" unicode="&#xcb;" horiz-adv-x="625" 
d="M28 0l193 530h570q-7 -14 -23.5 -36.5t-35 -44.5t-36 -38t-25.5 -16h-308l-57 -157l95 92h231l-143 -135h-199l-22 -60h383q-1 -2 -5 -8.5l-8 -13.5t-8 -13t-5 -7q-9 -12 -24.5 -28l-30.5 -30.5t-26.5 -24.5t-12.5 -10h-503zM391 653q9 25 33 42t51 17t39.5 -17t3.5 -42
t-34 -42t-52 -17t-38.5 17t-2.5 42zM699 653q-9 -25 -33.5 -42t-51.5 -17t-39 17t-3 42t33.5 42t51.5 17t39 -17t3 -42z" />
    <glyph glyph-name="FL00CCh" unicode="&#xcc;" horiz-adv-x="248" 
d="M392 666q1 -10 3 -20.5t-3 -24.5q-3 -9 -8 -16.5t-13 -11.5l-7 -4q-2 -2 -10 -2q-14 0 -30 10t-20 23l-7 23q-2 6 -3 12t1 13q10 25 37 42q21 8 28 8q11 0 16.5 -9.5t7.5 -20.5zM221 530h192l-193 -530h-192z" />
    <glyph glyph-name="FL00CDh" unicode="&#xcd;" horiz-adv-x="248" 
d="M220 0h-192l193 530h192zM324 668l24 22q11 11 23 20.5t23 9.5t22 -8q17 -17 7 -42q-2 -7 -8 -13l-12 -12l-24 -23q-7 -6 -16.5 -12t-20 -10.5t-20.5 -7.5t-17 -3t-9 2l-3 4q-5 5 -5 11q0 10 4 17q5 14 14.5 24.5t17.5 20.5z" />
    <glyph glyph-name="FL00CEh" unicode="&#xce;" horiz-adv-x="248" 
d="M220 0h-192l193 530h192zM358 654l-58 -59h-91l107 105l10.5 7.5t11.5 4.5h62q8 0 15 -8.5t11 -14.5l47 -94h-82z" />
    <glyph glyph-name="FL00CFh" unicode="&#xcf;" horiz-adv-x="248" 
d="M220 0h-192l193 530h192zM210 653q9 25 33 42t51 17t39.5 -17t3.5 -42t-34 -42t-52 -17t-38.5 17t-2.5 42zM518 653q-9 -25 -33.5 -42t-51.5 -17t-39 17t-3 42t33.5 42t51.5 17t39 -17t3 -42z" />
    <glyph glyph-name="FL00D0h" unicode="&#xd0;" horiz-adv-x="773" 
d="M817 243q-48 -65 -95.5 -111.5t-98.5 -75.5t-109 -42.5t-127 -13.5h-249l71 195h-120l143 135h26l73 200h435q51 0 79 -27t34 -68.5t-10 -92.5t-52 -99zM430 195h-27l-22 -60h30q22 0 54.5 12t65.5 30t61 39.5t42 40.5l13.5 18t12.5 23q12 31 12 57q0 17 -7.5 28.5
t-26.5 11.5h-162l-24 -65h121z" />
    <glyph glyph-name="FL00D1h" unicode="&#xd1;" horiz-adv-x="654" 
d="M220 0h-192l193 530h242l57 -298l109 298h190l-193 -530h-242l-56 298zM592 651l58 59h91l-1.5 -2t-11.5 -12l-32 -31l-62 -60l-10.5 -7.5t-11.5 -4.5h-82l-33 59l-58 -59h-91l107 105q5 3 11 7.5t11 4.5h82z" />
    <glyph glyph-name="FL00D2h" unicode="&#xd2;" horiz-adv-x="721" 
d="M305 257q-3 -19 3 -40.5t18 -39.5t29 -30t37 -12h66q12 0 30.5 8.5t38 22.5t37 31.5t26.5 34.5q9 14 11 22l4 10q2 10 2 9q1 10 1.5 19.5t0.5 20.5q0 16 -4 30.5t-13 26t-24.5 18.5t-38.5 7h-81q-16 0 -34.5 -8.5t-36.5 -22.5t-33.5 -31.5t-24.5 -34.5l-9 -22.5t-5 -18.5
zM797 287q-7 -48 -37 -99t-74.5 -93t-100.5 -68.5t-116 -26.5h-100q-61 0 -112 11t-85.5 38.5t-50 74.5t-5.5 119q7 48 36.5 99t72.5 93t95 68.5t105 26.5h132q61 0 110.5 -13.5t81.5 -42.5t45.5 -75t2.5 -112zM621 690l8 -22q0 -10 2.5 -20.5t-2.5 -24.5q-4 -9 -9 -16.5
t-12 -11.5l-7 -4q-2 -2 -11 -2q-14 0 -29.5 10t-20.5 23l-6 23q-2 6 -3 12t1 13q10 25 37 42q21 8 28 8q11 0 16.5 -9.5t7.5 -20.5z" />
    <glyph glyph-name="FL00D3h" unicode="&#xd3;" horiz-adv-x="721" 
d="M305 257q-3 -19 3 -40.5t18 -39.5t29 -30t37 -12h66q12 0 30.5 8.5t38 22.5t37 31.5t26.5 34.5q9 14 11 22l4 10q2 10 2 9q1 10 1.5 19.5t0.5 20.5q0 16 -4 30.5t-13 26t-24.5 18.5t-38.5 7h-81q-16 0 -34.5 -8.5t-36.5 -22.5t-33.5 -31.5t-24.5 -34.5l-9 -22.5t-5 -18.5
zM797 287q-7 -48 -37 -99t-74.5 -93t-100.5 -68.5t-116 -26.5h-100q-61 0 -112 11t-85.5 38.5t-50 74.5t-5.5 119q7 48 36.5 99t72.5 93t95 68.5t105 26.5h132q61 0 110.5 -13.5t81.5 -42.5t45.5 -75t2.5 -112zM557 668l24 22q11 11 23 20.5t23 9.5t22 -8q17 -17 7 -42
q-2 -7 -8 -13l-12 -12l-24 -23q-7 -6 -16.5 -12t-20 -10.5t-20.5 -7.5t-17 -3t-9 2l-3 4q-5 5 -5 11q0 10 4 17q5 14 14.5 24.5t17.5 20.5z" />
    <glyph glyph-name="FL00D4h" unicode="&#xd4;" horiz-adv-x="721" 
d="M305 257q-3 -19 3 -40.5t18 -39.5t29 -30t37 -12h66q12 0 30.5 8.5t38 22.5t37 31.5t26.5 34.5q9 14 11 22l4 10q2 10 2 9q1 10 1.5 19.5t0.5 20.5q0 16 -4 30.5t-13 26t-24.5 18.5t-38.5 7h-81q-16 0 -34.5 -8.5t-36.5 -22.5t-33.5 -31.5t-24.5 -34.5l-9 -22.5t-5 -18.5
zM797 287q-7 -48 -37 -99t-74.5 -93t-100.5 -68.5t-116 -26.5h-100q-61 0 -112 11t-85.5 38.5t-50 74.5t-5.5 119q7 48 36.5 99t72.5 93t95 68.5t105 26.5h132q61 0 110.5 -13.5t81.5 -42.5t45.5 -75t2.5 -112zM580 653l-59 -59h-91l107 105q5 3 11.5 7.5t11.5 4.5h62
q8 0 14.5 -8.5t10.5 -14.5l47 -94h-82z" />
    <glyph glyph-name="FL00D5h" unicode="&#xd5;" horiz-adv-x="721" 
d="M797 287q-7 -48 -37 -99t-74.5 -93t-100.5 -68.5t-116 -26.5h-100q-61 0 -112 11t-85.5 38.5t-50 74.5t-5.5 119q7 48 36.5 99t72.5 93t95 68.5t105 26.5h132q61 0 110.5 -13.5t81.5 -42.5t45.5 -75t2.5 -112zM305 257q-3 -19 3 -40.5t18 -39.5t29 -30t37 -12h66
q12 0 30.5 8.5t38 22.5t37 31.5t26.5 34.5q9 14 11 22l4 10q2 10 2 9q1 10 1.5 19.5t0.5 20.5q0 16 -4 30.5t-13 26t-24.5 18.5t-38.5 7h-81q-16 0 -34.5 -8.5t-36.5 -22.5t-33.5 -31.5t-24.5 -34.5l-9 -22.5t-5 -18.5zM628 651l58 59h91l-1.5 -2t-11.5 -12l-32 -31l-62 -60
l-10.5 -7.5t-11.5 -4.5h-82l-33 59l-58 -59h-91l107 105q5 3 11 7.5t11 4.5h82z" />
    <glyph glyph-name="FL00D6h" unicode="&#xd6;" horiz-adv-x="721" 
d="M305 257q-3 -19 3 -40.5t18 -39.5t29 -30t37 -12h66q12 0 30.5 8.5t38 22.5t37 31.5t26.5 34.5q9 14 11 22l4 10q2 10 2 9q1 10 1.5 19.5t0.5 20.5q0 16 -4 30.5t-13 26t-24.5 18.5t-38.5 7h-81q-16 0 -34.5 -8.5t-36.5 -22.5t-33.5 -31.5t-24.5 -34.5l-9 -22.5t-5 -18.5
zM797 287q-7 -48 -37 -99t-74.5 -93t-100.5 -68.5t-116 -26.5h-100q-61 0 -112 11t-85.5 38.5t-50 74.5t-5.5 119q7 48 36.5 99t72.5 93t95 68.5t105 26.5h132q61 0 110.5 -13.5t81.5 -42.5t45.5 -75t2.5 -112zM437 653q9 25 33 42t51 17t39.5 -17t3.5 -42t-34 -42t-52 -17
t-38.5 17t-2.5 42zM745 653q-9 -25 -33.5 -42t-51.5 -17t-39 17t-3 42t33.5 42t51.5 17t39 -17t3 -42z" />
    <glyph glyph-name="FL00D7h" unicode="&#xd7;" horiz-adv-x="399" 
d="M187 125l82 65l33 -65h124l-69 137l168 136h-124l-79 -64l-34 64h-124l68 -136l-169 -137h124z" />
    <glyph glyph-name="FL00D8h" unicode="&#xd8;" horiz-adv-x="721" 
d="M797 287q-7 -48 -37 -99t-74.5 -93t-100.5 -68.5t-116 -26.5h-100q-61 0 -112 11t-85.5 38.5t-50 74.5t-5.5 119q7 48 36.5 99t72.5 93t95 68.5t105 26.5h132q61 0 110.5 -13.5t81.5 -42.5t45.5 -75t2.5 -112zM607 273q3 25 0 54l-252 -180q16 -12 37 -12h66
q12 0 30.5 8.5t38 22.5t37 31.5t26.5 34.5q9 14 11 22l4 10q2 10 2 9zM305 257q-2 -11 -1 -22.5t4 -22.5l253 178q-20 5 -32 5h-81q-16 0 -34.5 -8.5t-36.5 -22.5t-33.5 -31.5t-24.5 -34.5l-9 -22.5t-5 -18.5z" />
    <glyph glyph-name="FL00D9h" unicode="&#xd9;" horiz-adv-x="682" 
d="M142 308l79 222h189l-54 -158.5l-28 -84.5t-11 -35.5t-2 -10.5q-7 -48 6.5 -77t50.5 -29h49q24 0 44.5 10t36.5 25t28 32t19 31l108 297h190l-90 -247q-25 -69 -51 -121.5t-59 -88.5t-76 -54.5t-103 -18.5h-117q-140 0 -199 44.5t-39 151.5q5 26 12.5 52zM603 689l8 -22
q0 -10 2 -20.5t-3 -24.5q-3 -9 -8 -16.5t-13 -11.5l-6 -4q-8 -2 -11 -2q-14 0 -29.5 10t-20.5 23l-7 23q-2 6 -3 12t1 13q10 25 38 42q21 8 28 8q11 0 16 -9.5t8 -20.5z" />
    <glyph glyph-name="FL00DAh" unicode="&#xda;" horiz-adv-x="682" 
d="M142 308l79 222h189l-54 -158.5l-28 -84.5t-11 -35.5t-2 -10.5q-7 -48 6.5 -77t50.5 -29h49q24 0 44.5 10t36.5 25t28 32t19 31l108 297h190l-90 -247q-25 -69 -51 -121.5t-59 -88.5t-76 -54.5t-103 -18.5h-117q-140 0 -199 44.5t-39 151.5q5 26 12.5 52zM544 667l24 22
q11 11 23 20.5t23 9.5t22 -8q16 -17 6 -42q-2 -7 -8 -13l-12 -12l-23 -23q-7 -6 -16.5 -12t-20 -10.5t-20.5 -7.5t-17 -3q-9 0 -9 2l-4 4q-5 4 -4.5 11.5t3.5 16.5q5 14 15 24.5t18 20.5z" />
    <glyph glyph-name="FL00DBh" unicode="&#xdb;" horiz-adv-x="682" 
d="M142 308l79 222h189l-54 -158.5l-28 -84.5t-11 -35.5t-2 -10.5q-7 -48 6.5 -77t50.5 -29h49q24 0 44.5 10t36.5 25t28 32t19 31l108 297h190l-90 -247q-25 -69 -51 -121.5t-59 -88.5t-76 -54.5t-103 -18.5h-117q-140 0 -199 44.5t-39 151.5q5 26 12.5 52zM563 653
l-58 -59h-91l107 105q5 3 11 7.5t11 4.5h62q8 0 15 -8.5t11 -14.5l47 -94h-82z" />
    <glyph glyph-name="FL00DCh" unicode="&#xdc;" horiz-adv-x="682" 
d="M422 652q9 25 33.5 42t51.5 17t39 -17t3 -42t-33.5 -42t-51.5 -17t-39 17t-3 42zM142 308l79 222h189l-54 -158.5l-28 -84.5t-11 -35.5t-2 -10.5q-7 -48 6.5 -77t50.5 -29h49q24 0 44.5 10t36.5 25t28 32t19 31l108 297h190l-90 -247q-25 -69 -51 -121.5t-59 -88.5
t-76 -54.5t-103 -18.5h-117q-140 0 -199 44.5t-39 151.5q5 26 12.5 52zM730 652q-9 -25 -33 -42t-51 -17t-39.5 17t-3.5 42t34 42t52 17t38.5 -17t2.5 -42z" />
    <glyph glyph-name="FL00DDh" unicode="&#xdd;" horiz-adv-x="656" 
d="M324 252l-113 278h214l50 -125l142 125h214l-315 -278l-92 -252h-192zM534 667l24 22q11 11 23 20.5t23 9.5t22 -8q16 -17 6 -42q-2 -7 -8 -13l-12 -12l-23 -23q-7 -6 -16.5 -12t-20 -10.5t-20.5 -7.5t-17 -3q-9 0 -9 2l-4 4q-5 4 -4.5 11.5t3.5 16.5q5 14 15 24.5
t18 20.5z" />
    <glyph glyph-name="FL00DEh" unicode="&#xde;" horiz-adv-x="680" 
d="M28 0l193 530h192l-36 -100h267q25 0 44 -15.5t31 -38t18.5 -48t7.5 -45.5q0 -42 -20.5 -77t-51.5 -60.5t-68 -39.5t-71 -14h-281l-33 -92h-192zM327 294l-55 -152l96 85h160q1 0 4.5 4.5t7.5 10.5t7 11.5t4 8.5l2 5q0 1 -0.5 3l-0.5 2q-3 5 -10.5 13.5t-9.5 8.5h-205z
" />
    <glyph glyph-name="FL00DFh" unicode="&#xdf;" horiz-adv-x="671" 
d="M-23 -141h192l194 535h187q2 0 9.5 -8.5t10.5 -13.5l0.5 -2t1.5 -3l-2 -5q-1 -3 -4.5 -8.5l-7.5 -11.5t-7.5 -10.5t-4.5 -4.5h-36l-154 -135h146q0 -7 -0.5 -14t-2.5 -10l-2 -5q-1 -1 -2.5 -3l-1.5 -2q-3 -3 -9 -6.5l-12 -7t-11 -6l-5 -2.5h-114q-28 -29 -52 -63.5
l-50 -72.5h229q59 0 95.5 7.5t59.5 23t37.5 40.5t29.5 60l4 11q5 13 10.5 31.5t5.5 32.5q-1 20 -11 31t-14 19q14 6 28 19t25 30.5t17.5 37t6.5 38.5v2q0 20 -6 45.5t-18.5 48t-31.5 38t-45 15.5h-385q-30 -32 -57 -65t-47 -67z" />
    <glyph glyph-name="FL00E0h" unicode="&#xe0;" 
d="M335 134h203l-35 235l-168 -225v-10zM559 0l-21 113q-2 -6 -14.5 -23t-28 -36t-30.5 -35t-22 -19h-423q2 8 2 7v3l360 460q3 6 12 16t19.5 19.5t21 17t17.5 7.5h168q10 0 18.5 -11t14.5 -27t10.5 -33.5l7.5 -29.5l66 -429h-178zM601 665q0 -10 2.5 -20.5t-2.5 -24.5
q-4 -9 -9 -16.5t-13 -11.5l-6 -4q-2 -2 -11 -2q-14 0 -29.5 10t-20.5 23l-6 23q-2 6 -3.5 12t1.5 13q10 25 37 42q21 8 28 8q11 0 16.5 -9.5t7.5 -20.5z" />
    <glyph glyph-name="FL00E1h" unicode="&#xe1;" 
d="M335 134h203l-35 235l-168 -225v-10zM559 0l-21 113q-2 -6 -14.5 -23t-28 -36t-30.5 -35t-22 -19h-423q2 8 2 7v3l360 460q3 6 12 16t19.5 19.5t21 17t17.5 7.5h168q10 0 18.5 -11t14.5 -27t10.5 -33.5l7.5 -29.5l66 -429h-178zM535 666l24 22q11 11 23 20.5t23 9.5
t22 -8q17 -17 7 -42q-2 -7 -8 -13l-12 -12l-23 -23q-14 -13 -37 -23t-37 -10q-8 0 -10 2l-3 4q-5 4 -4.5 11.5t3.5 16.5q5 14 15 24.5t17 20.5z" />
    <glyph glyph-name="FL00E2h" unicode="&#xe2;" 
d="M335 134h203l-35 235l-168 -225v-10zM559 0l-21 113q-2 -6 -14.5 -23t-28 -36t-30.5 -35t-22 -19h-423q2 8 2 7v3l360 460q3 6 12 16t19.5 19.5t21 17t17.5 7.5h168q10 0 18.5 -11t14.5 -27t10.5 -33.5l7.5 -29.5l66 -429h-178zM567 652l-57 -59q-92 -1 -91 0l107 105
q5 3 10.5 7.5t10.5 4.5h62q8 0 15.5 -8.5t11.5 -14.5l47 -94h-82z" />
    <glyph glyph-name="FL00E3h" unicode="&#xe3;" 
d="M335 134h203l-35 235l-168 -225v-10zM559 0l-21 113q-2 -6 -14.5 -23t-28 -36t-30.5 -35t-22 -19h-423q2 8 2 7v3l360 460q3 6 12 16t19.5 19.5t21 17t17.5 7.5h168q10 0 18.5 -11t14.5 -27t10.5 -33.5l7.5 -29.5l66 -429h-178zM633 651l58 59h91l-1.5 -2t-11.5 -12
l-32 -31l-62 -60l-10.5 -7.5t-11.5 -4.5h-82l-33 59l-58 -59h-91l107 105q5 3 11 7.5t11 4.5h82z" />
    <glyph glyph-name="FL00E4h" unicode="&#xe4;" 
d="M335 134h203l-35 235l-168 -225v-10zM559 0l-21 113q-2 -6 -14.5 -23t-28 -36t-30.5 -35t-22 -19h-423q2 8 2 7v3l360 460q3 6 12 16t19.5 19.5t21 17t17.5 7.5h168q10 0 18.5 -11t14.5 -27t10.5 -33.5l7.5 -29.5l66 -429h-178zM419 653q9 25 33 42t51 17t39.5 -17
t3.5 -42t-34 -42t-52 -17t-38.5 17t-2.5 42zM727 653q-9 -25 -33.5 -42t-51.5 -17t-39 17t-3 42t33.5 42t51.5 17t39 -17t3 -42z" />
    <glyph glyph-name="FL00E5h" unicode="&#xe5;" 
d="M335 134h203l-35 235l-168 -225v-10zM559 0l-21 113q-2 -6 -14.5 -23t-28 -36t-30.5 -35t-22 -19h-423q2 8 2 7v3l360 460q3 6 12 16t19.5 19.5t21 17t17.5 7.5h168q10 0 18.5 -11t14.5 -27t10.5 -33.5l7.5 -29.5l66 -429h-178zM511 653q9 25 33 42t51 17t39.5 -17
t3.5 -42t-34 -42t-52 -17t-38.5 17t-2.5 42z" />
    <glyph glyph-name="FL00E6h" unicode="&#xe6;" horiz-adv-x="1163" 
d="M754 530h570q-7 -14 -23.5 -36.5t-35 -44.5t-36 -38t-25.5 -16h-308l-57 -157l95 92h231l-143 -135h-199l-22 -60h383q-1 -2 -5 -8.5l-8 -13.5t-8 -13t-5 -7q-9 -12 -24.5 -28l-30.5 -30.5t-26.5 -24.5t-12.5 -10h-505l-21 113q-2 -6 -14.5 -23t-28 -36t-30.5 -35
t-22 -19h-423q2 8 2 7v3l360 460q3 6 12 16t19.5 19.5t21 17t17.5 7.5h168q9 0 18 -11t16 -27t11.5 -33t5.5 -30l14 -89zM335 144v-10h203l-35 235z" />
    <glyph glyph-name="FL00E7h" unicode="&#xe7;" horiz-adv-x="631" 
d="M108 -116h261l42 117q4 -1 12 -1h11h24h80q38 30 67 65.5t52 69.5h-239q-17 0 -35.5 12t-34 30t-25.5 39.5t-10 40.5q0 15 8 41q6 17 16 34.5t22.5 31.5t27.5 22.5t31 8.5h260q35 30 64.5 63.5t58.5 71.5h-413q-53 0 -100 -26.5t-83 -68.5t-57 -93t-21 -99t13 -85t36 -64
t54.5 -45t68.5 -29l-16 -44h-53z" />
    <glyph glyph-name="FL00E8h" unicode="&#xe8;" horiz-adv-x="625" 
d="M28 0l193 530h570q-7 -14 -23.5 -36.5t-35 -44.5t-36 -38t-25.5 -16h-308l-57 -157l95 92h231l-143 -135h-199l-22 -60h383q-1 -2 -5 -8.5l-8 -13.5t-8 -13t-5 -7q-9 -12 -24.5 -28l-30.5 -30.5t-26.5 -24.5t-12.5 -10h-503zM550 692l8 -22q0 -10 2 -20.5t-3 -24.5
q-3 -9 -8 -16.5t-13 -11.5l-6 -4q-8 -2 -11 -2q-14 0 -29.5 10t-20.5 23l-7 23q-2 6 -3 12t2 13q8 26 37 42q21 8 28 8q11 0 16 -9.5t8 -20.5z" />
    <glyph glyph-name="FL00E9h" unicode="&#xe9;" horiz-adv-x="625" 
d="M28 0l193 530h570q-7 -14 -23.5 -36.5t-35 -44.5t-36 -38t-25.5 -16h-308l-57 -157l95 92h231l-143 -135h-199l-22 -60h383q-1 -2 -5 -8.5l-8 -13.5t-8 -13t-5 -7q-9 -12 -24.5 -28l-30.5 -30.5t-26.5 -24.5t-12.5 -10h-503zM493 671l24 22q11 11 23 20.5t23 9.5t22 -8
q17 -17 7 -42q-2 -7 -8 -13l-12 -12l-24 -23q-7 -6 -16.5 -12t-20 -10.5t-20.5 -7.5t-17 -3t-9 2l-3 4q-5 5 -5 11q0 10 4 17q5 14 14.5 24.5t17.5 20.5z" />
    <glyph glyph-name="FL00EAh" unicode="&#xea;" horiz-adv-x="625" 
d="M28 0l193 530h570q-7 -14 -23.5 -36.5t-35 -44.5t-36 -38t-25.5 -16h-308l-57 -157l95 92h231l-143 -135h-199l-22 -60h383q-1 -2 -5 -8.5l-8 -13.5t-8 -13t-5 -7q-9 -12 -24.5 -28l-30.5 -30.5t-26.5 -24.5t-12.5 -10h-503zM528 655l-59 -59h-91l107 105q5 3 11.5 7.5
t11.5 4.5h62q8 0 14.5 -8.5t10.5 -14.5l47 -94h-82z" />
    <glyph glyph-name="FL00EBh" unicode="&#xeb;" horiz-adv-x="625" 
d="M28 0l193 530h570q-7 -14 -23.5 -36.5t-35 -44.5t-36 -38t-25.5 -16h-308l-57 -157l95 92h231l-143 -135h-199l-22 -60h383q-1 -2 -5 -8.5l-8 -13.5t-8 -13t-5 -7q-9 -12 -24.5 -28l-30.5 -30.5t-26.5 -24.5t-12.5 -10h-503zM391 653q9 25 33 42t51 17t39.5 -17t3.5 -42
t-34 -42t-52 -17t-38.5 17t-2.5 42zM699 653q-9 -25 -33.5 -42t-51.5 -17t-39 17t-3 42t33.5 42t51.5 17t39 -17t3 -42z" />
    <glyph glyph-name="FL00ECh" unicode="&#xec;" horiz-adv-x="248" 
d="M392 666q1 -10 3 -20.5t-3 -24.5q-3 -9 -8 -16.5t-13 -11.5l-7 -4q-2 -2 -10 -2q-14 0 -30 10t-20 23l-7 23q-2 6 -3 12t1 13q10 25 37 42q21 8 28 8q11 0 16.5 -9.5t7.5 -20.5zM221 530h192l-193 -530h-192z" />
    <glyph glyph-name="FL00EDh" unicode="&#xed;" horiz-adv-x="248" 
d="M220 0h-192l193 530h192zM324 668l24 22q11 11 23 20.5t23 9.5t22 -8q17 -17 7 -42q-2 -7 -8 -13l-12 -12l-24 -23q-7 -6 -16.5 -12t-20 -10.5t-20.5 -7.5t-17 -3t-9 2l-3 4q-5 5 -5 11q0 10 4 17q5 14 14.5 24.5t17.5 20.5z" />
    <glyph glyph-name="FL00EEh" unicode="&#xee;" horiz-adv-x="248" 
d="M220 0h-192l193 530h192zM358 654l-58 -59h-91l107 105l10.5 7.5t11.5 4.5h62q8 0 15 -8.5t11 -14.5l47 -94h-82z" />
    <glyph glyph-name="FL00EFh" unicode="&#xef;" horiz-adv-x="248" 
d="M220 0h-192l193 530h192zM210 653q9 25 33 42t51 17t39.5 -17t3.5 -42t-34 -42t-52 -17t-38.5 17t-2.5 42zM518 653q-9 -25 -33.5 -42t-51.5 -17t-39 17t-3 42t33.5 42t51.5 17t39 -17t3 -42z" />
    <glyph glyph-name="FL00F0h" unicode="&#xf0;" horiz-adv-x="646" 
d="M99 195q27 55 68.5 89.5t105.5 45.5h272q5 26 -2 45.5t-32 19.5h-260q-14 30 -19 63.5t-6 71.5h413q52 0 80 -26.5t33.5 -68.5t-10.5 -93t-52 -99q-52 -72 -115 -119t-129.5 -74.5t-134 -38.5t-128.5 -11q-37 0 -59.5 17t-32.5 45t-7.5 63t15.5 70zM330 203
q-22 -3 -31.5 -11.5l-20.5 -17.5l-3 -38h58q23 0 54.5 21t65.5 46h-123z" />
    <glyph glyph-name="FL00F1h" unicode="&#xf1;" horiz-adv-x="654" 
d="M220 0h-192l193 530h242l57 -298l109 298h190l-193 -530h-242l-56 298zM592 651l58 59h91l-1.5 -2t-11.5 -12l-32 -31l-62 -60l-10.5 -7.5t-11.5 -4.5h-82l-33 59l-58 -59h-91l107 105q5 3 11 7.5t11 4.5h82z" />
    <glyph glyph-name="FL00F2h" unicode="&#xf2;" horiz-adv-x="721" 
d="M305 257q-3 -19 3 -40.5t18 -39.5t29 -30t37 -12h66q12 0 30.5 8.5t38 22.5t37 31.5t26.5 34.5q9 14 11 22l4 10q2 10 2 9q1 10 1.5 19.5t0.5 20.5q0 16 -4 30.5t-13 26t-24.5 18.5t-38.5 7h-81q-16 0 -34.5 -8.5t-36.5 -22.5t-33.5 -31.5t-24.5 -34.5l-9 -22.5t-5 -18.5
zM797 287q-7 -48 -37 -99t-74.5 -93t-100.5 -68.5t-116 -26.5h-100q-61 0 -112 11t-85.5 38.5t-50 74.5t-5.5 119q7 48 36.5 99t72.5 93t95 68.5t105 26.5h132q61 0 110.5 -13.5t81.5 -42.5t45.5 -75t2.5 -112zM621 690l8 -22q0 -10 2.5 -20.5t-2.5 -24.5q-4 -9 -9 -16.5
t-12 -11.5l-7 -4q-2 -2 -11 -2q-14 0 -29.5 10t-20.5 23l-6 23q-2 6 -3 12t1 13q10 25 37 42q21 8 28 8q11 0 16.5 -9.5t7.5 -20.5z" />
    <glyph glyph-name="FL00F3h" unicode="&#xf3;" horiz-adv-x="721" 
d="M305 257q-3 -19 3 -40.5t18 -39.5t29 -30t37 -12h66q12 0 30.5 8.5t38 22.5t37 31.5t26.5 34.5q9 14 11 22l4 10q2 10 2 9q1 10 1.5 19.5t0.5 20.5q0 16 -4 30.5t-13 26t-24.5 18.5t-38.5 7h-81q-16 0 -34.5 -8.5t-36.5 -22.5t-33.5 -31.5t-24.5 -34.5l-9 -22.5t-5 -18.5
zM797 287q-7 -48 -37 -99t-74.5 -93t-100.5 -68.5t-116 -26.5h-100q-61 0 -112 11t-85.5 38.5t-50 74.5t-5.5 119q7 48 36.5 99t72.5 93t95 68.5t105 26.5h132q61 0 110.5 -13.5t81.5 -42.5t45.5 -75t2.5 -112zM557 668l24 22q11 11 23 20.5t23 9.5t22 -8q17 -17 7 -42
q-2 -7 -8 -13l-12 -12l-24 -23q-7 -6 -16.5 -12t-20 -10.5t-20.5 -7.5t-17 -3t-9 2l-3 4q-5 5 -5 11q0 10 4 17q5 14 14.5 24.5t17.5 20.5z" />
    <glyph glyph-name="FL00F4h" unicode="&#xf4;" horiz-adv-x="721" 
d="M305 257q-3 -19 3 -40.5t18 -39.5t29 -30t37 -12h66q12 0 30.5 8.5t38 22.5t37 31.5t26.5 34.5q9 14 11 22l4 10q2 10 2 9q1 10 1.5 19.5t0.5 20.5q0 16 -4 30.5t-13 26t-24.5 18.5t-38.5 7h-81q-16 0 -34.5 -8.5t-36.5 -22.5t-33.5 -31.5t-24.5 -34.5l-9 -22.5t-5 -18.5
zM797 287q-7 -48 -37 -99t-74.5 -93t-100.5 -68.5t-116 -26.5h-100q-61 0 -112 11t-85.5 38.5t-50 74.5t-5.5 119q7 48 36.5 99t72.5 93t95 68.5t105 26.5h132q61 0 110.5 -13.5t81.5 -42.5t45.5 -75t2.5 -112zM580 653l-59 -59h-91l107 105q5 3 11.5 7.5t11.5 4.5h62
q8 0 14.5 -8.5t10.5 -14.5l47 -94h-82z" />
    <glyph glyph-name="FL00F5h" unicode="&#xf5;" horiz-adv-x="721" 
d="M797 287q-7 -48 -37 -99t-74.5 -93t-100.5 -68.5t-116 -26.5h-100q-56 0 -103 9t-81 31t-53.5 59t-19.5 93q0 28 4 48v3q7 48 36.5 99t72.5 93t95 68.5t105 26.5h132q54 0 99 -10.5t77.5 -33t50.5 -58.5t18 -86q0 -13 -1.5 -26.5t-3.5 -28.5zM305 257q-1 -1 -1 -7v-6
q0 -18 7 -37.5t19 -35.5t28 -26t34 -10h66q12 0 30.5 8.5t38 22.5t37 31.5t26.5 34.5q9 14 11 22l4 10q2 10 2 9q1 8 1.5 16.5t0.5 17.5q0 16 -3 32t-12 28.5t-24.5 20t-40.5 7.5h-81q-16 0 -34.5 -8.5t-36.5 -22.5t-33.5 -31.5t-24.5 -34.5l-9 -22.5t-5 -18.5zM628 651
l58 59h91l-1.5 -2t-11.5 -12l-32 -31l-62 -60l-10.5 -7.5t-11.5 -4.5h-82l-33 59l-58 -59h-91l107 105q5 3 11 7.5t11 4.5h82z" />
    <glyph glyph-name="FL00F6h" unicode="&#xf6;" horiz-adv-x="721" 
d="M305 257q-3 -19 3 -40.5t18 -39.5t29 -30t37 -12h66q12 0 30.5 8.5t38 22.5t37 31.5t26.5 34.5q9 14 11 22l4 10q2 10 2 9q1 10 1.5 19.5t0.5 20.5q0 16 -4 30.5t-13 26t-24.5 18.5t-38.5 7h-81q-16 0 -34.5 -8.5t-36.5 -22.5t-33.5 -31.5t-24.5 -34.5l-9 -22.5t-5 -18.5
zM797 287q-7 -48 -37 -99t-74.5 -93t-100.5 -68.5t-116 -26.5h-100q-61 0 -112 11t-85.5 38.5t-50 74.5t-5.5 119q7 48 36.5 99t72.5 93t95 68.5t105 26.5h132q61 0 110.5 -13.5t81.5 -42.5t45.5 -75t2.5 -112zM437 653q9 25 33 42t51 17t39.5 -17t3.5 -42t-34 -42t-52 -17
t-38.5 17t-2.5 42zM745 653q-9 -25 -33.5 -42t-51.5 -17t-39 17t-3 42t33.5 42t51.5 17t39 -17t3 -42z" />
    <glyph glyph-name="FL00F7h" unicode="&#xf7;" horiz-adv-x="432" 
d="M89 195l143 135h302l-143 -135h-302zM315 417q9 25 33 42t51 17t39.5 -17t3.5 -42t-34 -42t-52 -17t-38.5 17t-2.5 42zM328 108q-9 -25 -33 -42t-51 -17t-39.5 17t-3.5 42t34 42t52 17t38.5 -17t2.5 -42z" />
    <glyph glyph-name="FL00F8h" unicode="&#xf8;" horiz-adv-x="721" 
d="M797 287q-7 -48 -37 -99t-74.5 -93t-100.5 -68.5t-116 -26.5h-100q-61 0 -112 11t-85.5 38.5t-50 74.5t-5.5 119q7 48 36.5 99t72.5 93t95 68.5t105 26.5h132q61 0 110.5 -13.5t81.5 -42.5t45.5 -75t2.5 -112zM607 273q3 25 0 54l-252 -180q16 -12 37 -12h66
q12 0 30.5 8.5t38 22.5t37 31.5t26.5 34.5q9 14 11 22l4 10q2 10 2 9zM305 257q-2 -11 -1 -22.5t4 -22.5l253 178q-20 5 -32 5h-81q-16 0 -34.5 -8.5t-36.5 -22.5t-33.5 -31.5t-24.5 -34.5l-9 -22.5t-5 -18.5z" />
    <glyph glyph-name="FL00F9h" unicode="&#xf9;" horiz-adv-x="682" 
d="M142 308l79 222h189l-54 -158.5l-28 -84.5t-11 -35.5t-2 -10.5q-7 -48 6.5 -77t50.5 -29h49q24 0 44.5 10t36.5 25t28 32t19 31l108 297h190l-90 -247q-25 -69 -51 -121.5t-59 -88.5t-76 -54.5t-103 -18.5h-117q-140 0 -199 44.5t-39 151.5q5 26 12.5 52zM603 689l8 -22
q0 -10 2 -20.5t-3 -24.5q-3 -9 -8 -16.5t-13 -11.5l-6 -4q-8 -2 -11 -2q-14 0 -29.5 10t-20.5 23l-7 23q-2 6 -3 12t1 13q10 25 38 42q21 8 28 8q11 0 16 -9.5t8 -20.5z" />
    <glyph glyph-name="FL00FAh" unicode="&#xfa;" horiz-adv-x="682" 
d="M142 308l79 222h189l-54 -158.5l-28 -84.5t-11 -35.5t-2 -10.5q-7 -48 6.5 -77t50.5 -29h49q24 0 44.5 10t36.5 25t28 32t19 31l108 297h190l-90 -247q-25 -69 -51 -121.5t-59 -88.5t-76 -54.5t-103 -18.5h-117q-140 0 -199 44.5t-39 151.5q5 26 12.5 52zM544 667l24 22
q11 11 23 20.5t23 9.5t22 -8q16 -17 6 -42q-2 -7 -8 -13l-12 -12l-23 -23q-7 -6 -16.5 -12t-20 -10.5t-20.5 -7.5t-17 -3q-9 0 -9 2l-4 4q-5 4 -4.5 11.5t3.5 16.5q5 14 15 24.5t18 20.5z" />
    <glyph glyph-name="FL00FBh" unicode="&#xfb;" horiz-adv-x="682" 
d="M142 308l79 222h189l-54 -158.5l-28 -84.5t-11 -35.5t-2 -10.5q-7 -48 6.5 -77t50.5 -29h49q24 0 44.5 10t36.5 25t28 32t19 31l108 297h190l-90 -247q-25 -69 -51 -121.5t-59 -88.5t-76 -54.5t-103 -18.5h-117q-140 0 -199 44.5t-39 151.5q5 26 12.5 52zM563 653
l-58 -59h-91l107 105q5 3 11 7.5t11 4.5h62q8 0 15 -8.5t11 -14.5l47 -94h-82z" />
    <glyph glyph-name="FL00FCh" unicode="&#xfc;" horiz-adv-x="682" 
d="M422 652q9 25 33.5 42t51.5 17t39 -17t3 -42t-33.5 -42t-51.5 -17t-39 17t-3 42zM142 308l79 222h189l-54 -158.5l-28 -84.5t-11 -35.5t-2 -10.5q-7 -48 6.5 -77t50.5 -29h49q24 0 44.5 10t36.5 25t28 32t19 31l108 297h190l-90 -247q-25 -69 -51 -121.5t-59 -88.5
t-76 -54.5t-103 -18.5h-117q-140 0 -199 44.5t-39 151.5q5 26 12.5 52zM730 652q-9 -25 -33 -42t-51 -17t-39.5 17t-3.5 42t34 42t52 17t38.5 -17t2.5 -42z" />
    <glyph glyph-name="FL00FDh" unicode="&#xfd;" horiz-adv-x="656" 
d="M324 252l-113 278h214l50 -125l142 125h214l-315 -278l-92 -252h-192zM534 667l24 22q11 11 23 20.5t23 9.5t22 -8q16 -17 6 -42q-2 -7 -8 -13l-12 -12l-23 -23q-7 -6 -16.5 -12t-20 -10.5t-20.5 -7.5t-17 -3q-9 0 -9 2l-4 4q-5 4 -4.5 11.5t3.5 16.5q5 14 15 24.5
t18 20.5z" />
    <glyph glyph-name="FL00FEh" unicode="&#xfe;" horiz-adv-x="680" 
d="M28 0l193 530h192l-36 -100h267q25 0 44 -15.5t31 -38t18.5 -48t7.5 -45.5q0 -42 -20.5 -77t-51.5 -60.5t-68 -39.5t-71 -14h-281l-33 -92h-192zM327 294l-55 -152l96 85h160q1 0 4.5 4.5t7.5 10.5t7 11.5t4 8.5l2 5q0 1 -0.5 3l-0.5 2q-3 5 -10.5 13.5t-9.5 8.5h-205z
" />
    <glyph glyph-name="FL00FFh" unicode="&#xff;" horiz-adv-x="656" 
d="M324 252l-113 278h214l50 -125l142 125h214l-315 -278l-92 -252h-192zM414 652q9 25 33.5 42t51.5 17t39 -17t3 -42t-33.5 -42t-51.5 -17t-39 17t-3 42zM722 652q-9 -25 -33 -42t-51 -17t-39.5 17t-3.5 42t34 42t52 17t38.5 -17t2.5 -42z" />
    </font>
</defs>
</svg>
